Торрент файл
скачать торрент магнет ссылка Добавлен: 07 мар 2015, 00:41
Размер: 345.39 МБ
Сидеров: 7
Личеров: 13
Автор

СообщениеДобавлено: 07 мар 2015, 00:41 

Не в сети
Супермодератор
Аватара пользователя
Дата регистрации:
06 июн 2014, 07:51
Спасибо: 633 / 0
Сообщения: 1997
Год выпуска: 2015
Страна: США
Жанр: драма, криминал
Продолжительность: ~42
Перевод: Профессиональный (многоголосый закадровый) [Gears Media]
Режиссёр: Эндрю Бернштейн, Дэниэл Эттиэс, Колин Бакси
В ролях: Джош Дюамель, Дин Уинтерс, Джанет МакТир, Кэл Пенн, Обри Доллар, Дэймон Херриман, Лиза Лапира, Джесси Фудрей, Мередит Итон, Джули Перл, Артур Ричардсон

Описание:
Два детектива с разными взглядами на мир объединяются, чтобы очистить улицы Батл Крика, используя цинизм, коварство и обман…

Доп. информация:
Студийная озвучка

Качество: HDTVRip
Контейнер: AVI
Видео: 720x400 (16:9), 23,976 fps, 969 kbps
Аудио: Russian, AC3, 48 kHz, 2 ch, 192 kbps
Субтитры: отсутствуют

Семпл

Формат : AVI
Формат/Информация : Audio Video Interleave
Размер файла : 345 Мбайт
Продолжительность : 41 м.
Общий поток : 1171 Кбит/сек
Программа кодирования : VirtualDubMod 1.5.10.2 (build 2540/release)
Библиотека кодирования : VirtualDubMod build 2540/release

Видео
Идентификатор : 0
Формат : MPEG-4 Visual
Профиль формата : Advanced Simple@L5
Параметр BVOP формата : 2
Параметр QPel формата : Да
Параметр GMC формата : 3 точки перехода
Параметр матрицы формата : Default (MPEG)
Режим смешивания : Сжатый битовый поток
Идентификатор кодека : XVID
Идентификатор кодека/Подсказка : XviD
Продолжительность : 41 м.
Битрейт : 969 Кбит/сек
Ширина : 720 пикселей
Высота : 400 пикселей
Соотношение сторон : 16:9
Частота кадров : 23,976 кадра/сек
Цветовое пространство : YUV
Субдискретизация насыщенности : 4:2:0
Битовая глубина : 8 бит
Тип развёртки : Прогрессивная
Метод сжатия : С потерями
Бит/(Пиксели*Кадры) : 0.140
Размер потока : 286 Мбайт (83%)
Библиотека кодирования : XviD 1.2.1 (UTC 2008-12-04)

Аудио
Идентификатор : 1
Формат : AC-3
Формат/Информация : Audio Coding 3
Расширение режима : CM (complete main)
Параметр Endianness формата : Big
Идентификатор кодека : 2000
Продолжительность : 41 м.
Вид битрейта : Постоянный
Битрейт : 192 Кбит/сек
Каналы : 2 канала
Расположение каналов : Front: L R
Частота : 48,0 КГц
Битовая глубина : 16 бит
Метод сжатия : С потерями
Размер потока : 56,6 Мбайт (16%)
Выравнивание : Соединение по промежуткам
Продолжительность промежутка : 42 мс. (1,00 видеокадр)
Время предзагрузки промежутка : 512 мс.



Вернуться к началу
 Профиль Отправить личное сообщение  
 
   Похожие торренты   Автор   Торрент   Размер 
В этой теме нет новых непрочитанных сообщений. Лучше звоните Солу / Better Call Saul (Сезон 4, Серия 1-10 из 10 )(Колин Бакси, Адам Бернштейн) [2018, Драма, комедия, криминал, WEB-DLRip][1080p][ Lostfilm+Jaskier+BaibaKО+Gears Media+GostFilm+Kubik V Kube+Eng]+[Subs ENG+Rus]

Враг Нароода

0 | 0

35.47 ГБ

В этой теме нет новых непрочитанных сообщений. Лучше звоните Солу / Better Call Saul (Сезон 4, Серия 1-10 из 10 )(Колин Бакси, Адам Бернштейн) [2018, Драма, комедия, криминал, WEB-DLRip][720p][ Lostfilm+Jaskier+BaibaKО+Gears Media+GostFilm+Kubik V Kube+Eng]+[Subs ENG+Rus]

Враг Нароода

0 | 0

23.66 ГБ

В этой теме нет новых непрочитанных сообщений. Касл-Рок / Castle Rock [2018](Сезон 1, Серия 1-10 из 10)(Майкл Аппендаль, Дэниэл Эттиэс) [Ужасы, фэнтези, триллер, драма, детектив,WEB-DLRip][720p][ Lostfilm+AlexFilm+Gears Media+ ProfixMedia+NewStudio+IdeaFilm+OMSKBIRD+Eng]+[Subs ENG+Rus]

Враг Нароода

0 | 0

28.51 ГБ

В этой теме нет новых непрочитанных сообщений. Касл-Рок / Castle Rock [2018](Сезон 1, Серия 1-10 из 10)(Майкл Аппендаль, Дэниэл Эттиэс) [Ужасы, фэнтези, триллер, драма, детектив,WEB-DLRip][1080p][ Lostfilm+AlexFilm+Gears Media+ ProfixMedia+NewStudio+IdeaFilm+OMSKBIRD+Eng]+[Subs ENG+Rus]

Враг Нароода

0 | 0

35.57 ГБ

В этой теме нет новых непрочитанных сообщений. Лучше звоните Солу / Better Call Saul (Сезон 2, Серия 1-10 из 10) (Колин Бакси, Адам Бернштейн, Винс Гиллиган) [2016 , Драма, комедия, криминал , WEB-DLRip 1080p] [Kravec , LostFilm , NewStudio , Jaskier , English] + [Subs Rus , Eng]

Враг Нароода

0 | 0

22.88 ГБ

В этой теме нет новых непрочитанных сообщений. Драка в Бэттл Крик / Battle Creek Brawl [боевик, комедия, криминал, 1980] BDRip 720p, Mvo+Dvo+Avo+Sub

salma3

65 | 41

7.66 ГБ

В этой теме нет новых непрочитанных сообщений. Помнить всё / Unforgettable [04х01-13 из 13] (Жан Де Сегонзак, Пол Холахан, Питер Уэрнер) [2015, драма, криминал, HDTVRip | Gears Media]

Dracon

68 | 42

6.98 ГБ


Начать новую тему Ответить на тему  [ 1 сообщение ] 




Для Мосгорсуда, Роскомнадзора и рекламодателей:: mosgorsud-torrent[собачка]yandex.ru
cron