Торрент файл
скачать торрент магнет ссылка Добавлен: 20 янв 2015, 11:17
Размер: 5.63 ГБ
Сидеров: 2
Личеров: 2
Автор

СообщениеДобавлено: 20 янв 2015, 11:17 

Не в сети
Зам. Админа
Аватара пользователя
Дата регистрации:
02 дек 2010, 12:39
Спасибо: 12656 / 214
Сообщения: 27984
Год выхода: 2013
Жанр: Триллер,Драма
Режиссер: Массимо Кольиторе
В ролях: Берт Янг, Джанфранко Террин, Джеймс Паркс, Катя Греко, Кэролайн Гудолл, Кэти МакГоверн, Никколо Сенни, Сара Лаззаро

О фильме:
Известный телеведущий оказывается запертым в лифте с женщиной по имени Катрин, которая считает, что его шоу провоцирует преступления. Недавно она перенесла трагическую гибель сына и считает шоумена виновным в этом. Она начинает свое собственное жестокое шоу в реальном режиме. Здесь трудно понять, кто преступник, а кто жертва. Столкновение двух характеров, двух воззрений, и ответ на вопрос, кто прав, кто виноват, предстоит искать зрителю…

Качество: BDRip [720p]
Видео: MPEG4/ISO/AVC, 1280x544, 23,976 кадра/сек, 5273  Кбит/сек
Аудио 1: Русский (DTS, 48 kHz, 6 ch, 1510 kbps avg / АС3, 48 kHz, 6 сh, 448 kbps avg)  
Аудио 2: Английский (DTS, 48 kHz, 6 ch, 1510 kbps avg)  
Субтитры: Русские [kon2011], Aнглийские
Дополнительно: Сохранены оригинальные чаптеры как на Blu-ray
Продолжительность: 01:32:12
Перевод: Любительский (двухголосый) [DeadSno & den904]
Общее
Уникальный идентификатор : 195972869667880052230211873686202738746 (0x936F0075D6E3ADC59E962A757FB5E83A)
Полное имя : D:ТОРРЕНТЫThe.Elevator.2013.Blu.Ray.720p..mkv
Формат : Matroska
Версия формата : Version 4 / Version 2
Размер файла : 5,63 Гбайт
Продолжительность : 1 ч. 32 м.
Общий поток : 8739 Кбит/сек
Дата кодирования : UTC 2015-01-19 16:33:43
Программа кодирования : mkvmerge v7.5.0 ('Glass Culture') 64bit built on Jan 4 2015 16:48:44
Библиотека кодирования : libebml v1.3.1 + libmatroska v1.4.2

Видео
Идентификатор : 1
Формат : AVC
Формат/Информация : Advanced Video Codec
Профиль формата : High@L4.1
Параметр CABAC формата : Да
Параметр ReFrames формата : 5 кадров
Идентификатор кодека : V_MPEG4/ISO/AVC
Битрейт : 5273 Кбит/сек
Ширина : 1280 пикселей
Высота : 544 пикселя
Соотношение сторон : 2,35:1
Режим частоты кадров : Переменный
Частота кадров в оригинале : 23,976 кадра/сек
Цветовое пространство : YUV
Субдискретизация насыщенности : 4:2:0
Битовая глубина : 8 бит
Тип развёртки : Прогрессивная
Бит/(Пиксели*Кадры) : 0.316
Библиотека кодирования : x264 core 142 r2491 24e4fed
Настройки программы : cabac=1 / ref=5 / deblock=1:0:0 / analyse=0x3:0x113 / me=umh / subme=8 / psy=1 / psy_rd=1.00:0.00 / mixed_ref=1 / me_range=16 / chroma_me=1 / trellis=1 / 8x8dct=1 / cqm=0 / deadzone=21,11 / fast_pskip=0 / chroma_qp_offset=-2 / threads=12 / lookahead_threads=2 / sliced_threads=0 / nr=0 / decimate=1 / interlaced=0 / bluray_compat=0 / constrained_intra=0 / bframes=3 / b_pyramid=2 / b_adapt=2 / b_bias=0 / direct=3 / weightb=1 / open_gop=0 / weightp=2 / keyint=250 / keyint_min=23 / scenecut=40 / intra_refresh=0 / rc_lookahead=50 / rc=2pass / mbtree=1 / bitrate=5273 / ratetol=1.0 / qcomp=0.60 / qpmin=0 / qpmax=69 / qpstep=4 / cplxblur=20.0 / qblur=0.5 / ip_ratio=1.40 / aq=1:1.00
Язык : English
Default : Да
Forced : Нет

Аудио #1
Идентификатор : 2
Формат : DTS
Формат/Информация : Digital Theater Systems
Идентификатор кодека : A_DTS
Продолжительность : 1 ч. 32 м.
Вид битрейта : Постоянный
Битрейт : 1510 Кбит/сек
Каналы : 6 каналов
Расположение каналов : Front: L C R, Side: L R, LFE
Частота : 48,0 КГц
Битовая глубина : 24 бит
Метод сжатия : С потерями
Размер потока : 996 Мбайт (17%)
Заголовок : Влад и Снежинка
Язык : Russian
Default : Да
Forced : Да

Аудио #2
Идентификатор : 3
Формат : AC-3
Формат/Информация : Audio Coding 3
Расширение режима : CM (complete main)
Параметр Endianness формата : Big
Идентификатор кодека : A_AC3
Продолжительность : 1 ч. 32 м.
Вид битрейта : Постоянный
Битрейт : 448 Кбит/сек
Каналы : 6 каналов
Расположение каналов : Front: L C R, Side: L R, LFE
Частота : 48,0 КГц
Битовая глубина : 16 бит
Метод сжатия : С потерями
Размер потока : 296 Мбайт (5%)
Заголовок : Влад и Снежинка
Язык : Russian
Default : Нет
Forced : Нет

Аудио #3
Идентификатор : 4
Формат : DTS
Формат/Информация : Digital Theater Systems
Идентификатор кодека : A_DTS
Продолжительность : 1 ч. 32 м.
Вид битрейта : Постоянный
Битрейт : 1510 Кбит/сек
Каналы : 6 каналов
Расположение каналов : Front: L C R, Side: L R, LFE
Частота : 48,0 КГц
Битовая глубина : 24 бит
Метод сжатия : С потерями
Размер потока : 996 Мбайт (17%)
Язык : English
Default : Нет
Forced : Нет

Текст #1
Идентификатор : 5
Формат : UTF-8
Идентификатор кодека : S_TEXT/UTF8
Идентификатор кодека/Информация : UTF-8 Plain Text
Язык : Russian
Default : Да
Forced : Да

Текст #2
Идентификатор : 6
Формат : UTF-8
Идентификатор кодека : S_TEXT/UTF8
Идентификатор кодека/Информация : UTF-8 Plain Text
Заголовок : kon2011
Язык : Russian
Default : Нет
Forced : Нет

Текст #3
Идентификатор : 7
Формат : UTF-8
Идентификатор кодека : S_TEXT/UTF8
Идентификатор кодека/Информация : UTF-8 Plain Text
Язык : English
Default : Нет
Forced : Нет







Вернуться к началу
 Профиль  
 
   Похожие торренты   Автор   Торрент   Размер 
В этой теме нет новых непрочитанных сообщений. 44 минуты: Бойня в северном Голливуде / 44 Minutes: The North Hollywood Shoot-Out [боевик, драма, криминал, 2003] DVD5, Mvo

salma3

35 | 11

3.88 ГБ

В этой теме нет новых непрочитанных сообщений. Менее привычная жизнь / A Life Less Ordinary [фэнтези, драма, мелодрама, комедия, криминал, 1997] BDRip 720p, Mvo

salma3

63 | 31

4.53 ГБ

В этой теме нет новых непрочитанных сообщений. Тайная жизнь хищников / Secret Life of Predators [01-04 из 04] [документальный, 2013] BDRip 720p, Dub

salma3

67 | 109

10.79 ГБ

В этой теме нет новых непрочитанных сообщений. Остановившаяся жизнь / Still Life [драма, 2013] BDRip-AVC, Dvo

salma3

0 | 0

1.97 ГБ

В этой теме нет новых непрочитанных сообщений. Нормальная жизнь / Normal Life [драма, криминал, 1996] HDTVRip 720p, Dvo

salma3

36 | 27

4.4 ГБ

В этой теме нет новых непрочитанных сообщений. Минуты до полуночи / Minutes to Midnight [Ужасы, 2018] WEB-DLRip, Mvo

salma3

0 | 0

1.3 ГБ

В этой теме нет новых непрочитанных сообщений. 88 минут / 88 Minutes [Триллер, драма, криминал, детектив, 2007] BDRip 720p, Mvo

salma3

30 | 24

4.54 ГБ


Начать новую тему Ответить на тему  [ 1 сообщение ] 




Для Мосгорсуда, Роскомнадзора и рекламодателей:: mosgorsud-torrent[собачка]yandex.ru
cron