Торрент файл
скачать торрент магнет ссылка Добавлен: 02 фев 2015, 11:59
Размер: 3.46 ГБ
Сидеров: 7
Личеров: 3
Автор

СообщениеДобавлено: 02 фев 2015, 11:59 

Не в сети
Зам. Админа
Аватара пользователя
Дата регистрации:
02 дек 2010, 12:39
Спасибо: 12656 / 214
Сообщения: 28009
Год выхода: 2014
Жанр: Драма,Комедия
Режиссер: Барри Левинсон
В ролях: Аль Пачино, Грета Гервиг, Дайэнн Уист, Кира Седжвик, Дилан Бейкер, Чарльз Гродин, Дэн Хедайя, Нина Арианда, Виктор Круз, Мария Ди Анджелис

О фильме:
Все роли, о которых он мечтал в молодости, сыграны, все песни спеты, все стихотворения прочтены. Творческий кризис наступил неожиданно. Главный герой, некогда знаменитый актер театра и кино, переживает минуты эмоционального спада. Поседевший от времени и от драматических жизненных событий, рано ставший на звездный путь, он не видит смысла в жизни. На крупные роли его больше не зовут. Молодость, когда-то дающая ему преимущество, навсегда покинула актера. Для чего жить? К чему стремиться? Лучший выход из сложившейся ситуации – самоубийство. Но время умирать еще не настало. Таинственная спасительница открыла в актере второе дыхание. Несмотря на огромную разницу в возрасте, они почувствовали магическое притяжение друг к другу.


Качество: WEB-DL[720p]
Видео: MPEG4/ISO/AVC, 1280х528, 23,976 кадра/сек, 3970  Кбит/сек
Аудио 1: Русский: АС3, 48 kHz, 2 ch, 192 kbps avg
Аудио 2: Английский: АС3, 48 kHz, 6 ch, 384 kbps avg    
Субтитры: Английские
Дополнительно: Сохранены оригинальные чаптеры как на Blu-Ray
Продолжительность: 01:42:11
Перевод: Любительский (двухголосый)  [Райм Закиров aka RAIM & GUGU]
Общее
Уникальный идентификатор : 223062480950913209433548642562047071642 (0xA7D0456A4CEE74AAAF8F7FFDDD3DD59A)
Полное имя : D:ТОРРЕНТЫThe.Humbling.2014.WEB-DL.720p..mkv
Формат : Matroska
Версия формата : Version 4 / Version 2
Размер файла : 3,46 Гбайт
Продолжительность : 1 ч. 46 м.
Общий поток : 4638 Кбит/сек
Дата кодирования : UTC 2015-02-01 20:07:11
Программа кодирования : mkvmerge v7.5.0 ('Glass Culture') 64bit built on Jan 4 2015 16:48:44
Библиотека кодирования : libebml v1.3.1 + libmatroska v1.4.2

Видео
Идентификатор : 1
Формат : AVC
Формат/Информация : Advanced Video Codec
Профиль формата : Main@L3.1
Параметр CABAC формата : Нет
Параметр ReFrames формата : 2 кадра
Идентификатор кодека : V_MPEG4/ISO/AVC
Продолжительность : 1 ч. 46 м.
Битрейт : 3970 Кбит/сек
Ширина : 1280 пикселей
Высота : 528 пикселей
Соотношение сторон : 2,40:1
Режим частоты кадров : Постоянный
Частота кадров : 23,976 кадра/сек
Цветовое пространство : YUV
Субдискретизация насыщенности : 4:2:0
Битовая глубина : 8 бит
Тип развёртки : Прогрессивная
Бит/(Пиксели*Кадры) : 0.245
Размер потока : 2,97 Гбайт (86%)
Язык : English
Default : Да
Forced : Нет
Основные цвета : BT.709
Характеристики трансфера : BT.709
Коэффициенты матрицы : BT.709

Аудио #1
Идентификатор : 2
Формат : AC-3
Формат/Информация : Audio Coding 3
Расширение режима : CM (complete main)
Параметр Endianness формата : Big
Идентификатор кодека : A_AC3
Продолжительность : 1 ч. 46 м.
Вид битрейта : Постоянный
Битрейт : 192 Кбит/сек
Каналы : 2 канала
Расположение каналов : Front: L R
Частота : 48,0 КГц
Битовая глубина : 16 бит
Метод сжатия : С потерями
Размер потока : 147 Мбайт (4%)
Заголовок : RAIM & GUGU
Язык : Russian
Default : Да
Forced : Да

Аудио #2
Идентификатор : 3
Формат : AC-3
Формат/Информация : Audio Coding 3
Расширение режима : CM (complete main)
Параметр Endianness формата : Big
Идентификатор кодека : A_AC3
Продолжительность : 1 ч. 46 м.
Вид битрейта : Постоянный
Битрейт : 384 Кбит/сек
Каналы : 6 каналов
Расположение каналов : Front: L C R, Side: L R, LFE
Частота : 48,0 КГц
Битовая глубина : 16 бит
Метод сжатия : С потерями
Размер потока : 294 Мбайт (8%)
Язык : English
Default : Нет
Forced : Нет

Текст #1
Идентификатор : 5
Формат : UTF-8
Идентификатор кодека : S_TEXT/UTF8
Идентификатор кодека/Информация : UTF-8 Plain Text
Язык : English
Default : Нет
Forced : Нет

Меню
00:00:00.000 : en:1
00:06:44.000 : en:2
00:11:37.000 : en:3
00:17:29.000 : en:4
00:23:15.000 : en:5
00:31:19.000 : en:6
00:37:19.000 : en:7
00:44:36.000 : en:8
00:52:51.000 : en:9
00:57:31.000 : en:10
01:06:36.000 : en:11
01:14:05.000 : en:12
01:23:17.000 : en:13
01:29:07.000 : en:14
01:36:17.000 : en:15
01:41:16.000 : en:16







Вернуться к началу
 Профиль  
 
   Похожие торренты   Автор   Торрент   Размер 
В этой теме нет новых непрочитанных сообщений. Рок на Востоке / Rock the Kasbah (Бэрри Левинсон) [Комедия, музыка, 2015] WEB-DL 720p, dub [Официальный звук]

Dracon

12 | 2

2.03 ГБ

В этой теме нет новых непрочитанных сообщений. Барри / Barry [S01] [комедия, 2018] WEBRip 720p, Mvo [GreenРай Studio]

salma3

1 | 2

4.32 ГБ

В этой теме нет новых непрочитанных сообщений. Рок на Востоке / Rock the Kasbah (Бэрри Левинсон) [Комедия, музыка, 2015] WEB-DLRip, dub [Официальный звук]

Dracon

262 | 16

1.37 ГБ

В этой теме нет новых непрочитанных сообщений. Рок на Востоке / Rock the Kasbah (Бэрри Левинсон) [Комедия, музыка, 2015] WEB-DL 1080p, dub [Официальный звук]

Dracon

35 | 2

3.89 ГБ

В этой теме нет новых непрочитанных сообщений. Барри / Barry [S01] [комедия, 2018] WEBRip, Mvo [GreenРай Studio]

salma3

0 | 0

2.92 ГБ

В этой теме нет новых непрочитанных сообщений. Барри / Barry [S01] [комедия, 2018] WEBRip 1080p, Mvo [GreenРай Studio]

salma3

0 | 0

12.77 ГБ

В этой теме нет новых непрочитанных сообщений. Самба / Samba [драма, комедия, 2014] BDRip 720p, Dub+Sub

salma3

12 | 41

5.95 ГБ


Начать новую тему Ответить на тему  [ 1 сообщение ] 




Для Мосгорсуда, Роскомнадзора и рекламодателей:: mosgorsud-torrent[собачка]yandex.ru
cron