Торрент файл
скачать торрент магнет ссылка Добавлен: 22 мар 2015, 21:02
Размер: 9.9 ГБ
Сидеров: 223
Личеров: 20
Автор

СообщениеДобавлено: 22 мар 2015, 21:02 

Не в сети
Зам. Админа
Аватара пользователя
Дата регистрации:
02 дек 2010, 12:39
Спасибо: 12656 / 214
Сообщения: 27984
Год выпуска: 2015
Жанр: Боевик, триллер, драма, криминал
Режиссер: Саймон Уэст
В ролях: Джейсон Стэйтем, Майкл Ангарано, Майло Вентимилья, Доминик Гарсиа-Лоридо, Энн Хеч, София Вергара, Макс Казелла, Джейсон Александер, Хоуп Дэвис, Стэнли Туччи

Описание: Главный герой — бывший военный Ник Эскаланте — работает в Лас-Вегасе охранником, мечтает накопить денег и навсегда уехать в Венецию. Но Ник соглашается помочь проститутке Холли, постоянно подвергающейся насилию со стороны сына крупного гангстера, из-за чего отъезд в Венецию затягивается.

Страна: США, Lionsgate, Cinema Seven Productions, Current Entertainment
Продолжительность: 01:32:21
Перевод: Любительский многоголосый, авторский

Качество: BDRip 1080p
Видео: MPEG-4 AVC, 12800 Кбит/с, 1920x800
Аудио rus: AC3, 6 ch, 384 Кбит/с (Студия "Paradox)
Аудио rus: АС3, 6 ch, 384 Кбит/с (М.Яроцкий)
Аудио eng: DTS, 6 ch, 1510 Кбит/с
Субтитры: Русские, английские

Полное имя : E:Wild.Card.2015.1080p.BluRay.x264-HDAccess.mkv
Формат : Matroska
Версия формата : Version 4 / Version 2
Размер файла : 9,90 Гбайт
Продолжительность : 1 ч. 32 м.
Общий поток : 15,3 Мбит/сек
Дата кодирования : UTC 2015-03-19 14:05:31
Программа кодирования : mkvmerge v7.3.0 ('Nouages') 64bit built on Oct 22 2014 18:53:34
Библиотека кодирования : libebml v1.3.0 + libmatroska v1.4.1
_STATISTICS_WRITING_APP : mkvmerge v7.3.0 ('Nouages') 64bit built on Oct 22 2014 18:53:34
_STATISTICS_WRITING_DATE_UTC : 2015-03-19 14:05:31
_STATISTICS_TAGS : BPS DURATION NUMBER_OF_FRAMES NUMBER_OF_BYTES
DURATION : 01:24:46.406000000
NUMBER_OF_FRAMES : 1021
NUMBER_OF_BYTES : 58471
Видео
Идентификатор : 1
Формат : AVC
Формат/Информация : Advanced Video Codec
Профиль формата : High@L4.1
Параметр CABAC формата : Да
Параметр ReFrames формата : 5 кадров
Идентификатор кодека : V_MPEG4/ISO/AVC
Продолжительность : 1 ч. 32 м.
Битрейт : 12,8 Мбит/сек
Ширина : 1920 пикселей
Высота : 800 пикселей
Соотношение сторон : 2,40:1
Режим частоты кадров : Постоянный
Частота кадров : 23,976 кадра/сек
Цветовое пространство : YUV
Субдискретизация насыщенности : 4:2:0
Битовая глубина : 8 бит
Тип развёртки : Прогрессивная
Бит/(Пиксели*Кадры) : 0.346
Размер потока : 8,23 Гбайт (83%)
Библиотека кодирования : x264 core 142 r2431+42 c69a006 tMod [8-bit@all X86_64]
Настройки программы : cabac=1 / ref=5 / deblock=1:-3:-3 / analyse=0x3:0x133 / me=umh / subme=9 / psy=1 / fade_compensate=0.00 / psy_rd=1.05:0.00 / mixed_ref=1 / me_range=24 / chroma_me=1 / trellis=2 / 8x8dct=1 / cqm=0 / deadzone=21,11 / fast_pskip=0 / chroma_qp_offset=-2 / threads=18 / lookahead_threads=3 / sliced_threads=0 / nr=0 / decimate=0 / interlaced=0 / bluray_compat=0 / constrained_intra=0 / fgo=0 / bframes=8 / b_pyramid=2 / b_adapt=2 / b_bias=0 / direct=3 / weightb=1 / open_gop=0 / weightp=2 / keyint=250 / keyint_min=23 / scenecut=40 / intra_refresh=0 / rc=crf / mbtree=0 / crf=18.0000 / qcomp=0.70 / qpmin=0:0:0 / qpmax=69:69:69 / qpstep=4 / ip_ratio=1.20 / pb_ratio=1.10 / aq=4:0.70 / aq-sensitivity=10.00 / aq-factor=1.00:1.00:1.00 / aq2=0 / aq3=0
Язык : English
Default : Да
Forced : Нет
_STATISTICS_WRITING_APP : mkvmerge v7.3.0 ('Nouages') 64bit built on Oct 22 2014 18:53:34
_STATISTICS_WRITING_DATE_UTC : 2015-03-19 14:05:31
_STATISTICS_TAGS : BPS DURATION NUMBER_OF_FRAMES NUMBER_OF_BYTES
DURATION : 01:32:20.535000000
NUMBER_OF_FRAMES : 132840
NUMBER_OF_BYTES : 9046101895
Аудио #1
Идентификатор : 2
Формат : AC-3
Формат/Информация : Audio Coding 3
Расширение режима : CM (complete main)
Параметр Endianness формата : Big
Идентификатор кодека : A_AC3
Продолжительность : 1 ч. 32 м.
Вид битрейта : Постоянный
Битрейт : 384 Кбит/сек
Каналы : 6 каналов
Расположение каналов : Front: L C R, Side: L R, LFE
Частота : 48,0 КГц
Битовая глубина : 16 бит
Метод сжатия : С потерями
Размер потока : 254 Мбайт (3%)
Заголовок : MVO, Paradox
Язык : Russian
Default : Да
Forced : Нет
Аудио #2
Идентификатор : 3
Формат : AC-3
Формат/Информация : Audio Coding 3
Расширение режима : CM (complete main)
Параметр Endianness формата : Big
Идентификатор кодека : A_AC3
Продолжительность : 1 ч. 32 м.
Вид битрейта : Постоянный
Битрейт : 384 Кбит/сек
Каналы : 6 каналов
Расположение каналов : Front: L C R, Side: L R, LFE
Частота : 48,0 КГц
Битовая глубина : 16 бит
Метод сжатия : С потерями
Размер потока : 254 Мбайт (3%)
Заголовок : AVO, М.Яроцкий
Язык : Russian
Default : Нет
Forced : Нет
Аудио #3
Идентификатор : 4
Формат : DTS
Формат/Информация : Digital Theater Systems
Режим : 16
Параметр Endianness формата : Big
Идентификатор кодека : A_DTS
Продолжительность : 1 ч. 32 м.
Вид битрейта : Постоянный
Битрейт : 1509 Кбит/сек
Каналы : 6 каналов
Расположение каналов : Front: L C R, Side: L R, LFE
Частота : 48,0 КГц
Битовая глубина : 24 бит
Метод сжатия : С потерями
Размер потока : 997 Мбайт (10%)
Язык : English
Default : Нет
Forced : Нет
Текст #1
Идентификатор : 5
Формат : UTF-8
Идентификатор кодека : S_TEXT/UTF8
Идентификатор кодека/Информация : UTF-8 Plain Text
Язык : Russian
Default : Нет
Forced : Нет
Текст #2
Идентификатор : 6
Формат : UTF-8
Идентификатор кодека : S_TEXT/UTF8
Идентификатор кодека/Информация : UTF-8 Plain Text
Язык : English
Default : Нет
Forced : Нет
Текст #3
Идентификатор : 7
Формат : UTF-8
Идентификатор кодека : S_TEXT/UTF8
Идентификатор кодека/Информация : UTF-8 Plain Text
Заголовок : SDH
Язык : English
Default : Нет
Forced : Нет
Меню
00:00:00.000 : en:00:00:00.000
00:06:08.658 : en:00:06:08.658
00:14:12.350 : en:00:14:12.350
00:23:21.816 : en:00:23:21.816
00:27:53.296 : en:00:27:53.296
00:33:44.814 : en:00:33:44.814
00:39:56.893 : en:00:39:56.893
00:45:03.532 : en:00:45:03.532
00:49:49.193 : en:00:49:49.193
00:56:36.391 : en:00:56:36.391
01:00:54.317 : en:01:00:54.317
01:05:01.105 : en:01:05:01.105
01:10:29.557 : en:01:10:29.557
01:16:24.787 : en:01:16:24.787
01:21:46.275 : en:01:21:46.275
01:25:39.257 : en:01:25:39.257






Вернуться к началу
 Профиль  
 
   Похожие торренты   Автор   Торрент   Размер 
В этой теме нет новых непрочитанных сообщений. Дикие лошади / Wild Horses [Драма, криминал, 2015] BDRip 1080p, Dub [Line]

salma3

161 | 37

6.8 ГБ

В этой теме нет новых непрочитанных сообщений. Убийца / Sicario (Дени Вильнёв) [Боевик, триллер, драма, криминал, детектив, 2015] BDRip 1080p, dub+sub [iTunes]

Dracon

1195 | 133

7.54 ГБ

В этой теме нет новых непрочитанных сообщений. Убийца / Sicario (Дени Вильнёв) [Боевик, триллер, драма, криминал, детектив, 2015] BDRip 1080p [Есарев]

Dracon

1993 | 122

8.92 ГБ

В этой теме нет новых непрочитанных сообщений. Молодость по страховке / Wild Oats [боевик, драма, комедия, 2015] WEB-DL 1080p, Dub [ iTunes]

salma3

1542 | 202

3.05 ГБ

В этой теме нет новых непрочитанных сообщений. На гребне волны / Point Break [боевик, триллер, криминал, спорт, 2015] BDRip 1080p, Dub+Sub [лицензия]

salma3

323 | 14

9.11 ГБ

В этой теме нет новых непрочитанных сообщений. На гребне волны / Point Break [Боевик, Триллер, Криминал, 2015] BDRip 1080p 3D-Video, Dub+Sub [лицензия]

salma3

1497 | 665

15.49 ГБ

В этой теме нет новых непрочитанных сообщений. Легенда / Legend [Триллер, драма, криминал, 2015] BDRip 1080p, dub [iTunes]

Dracon

406 | 35

9.1 ГБ


Начать новую тему Ответить на тему  [ 1 сообщение ] 




Для Мосгорсуда, Роскомнадзора и рекламодателей:: mosgorsud-torrent[собачка]yandex.ru
cron