Торрент файл
скачать торрент магнет ссылка Добавлен: 26 мар 2015, 11:54
Размер: 10.01 ГБ
Сидеров: 4
Личеров: 3
Автор

СообщениеДобавлено: 26 мар 2015, 11:54 

Не в сети
Зам. Админа
Аватара пользователя
Дата регистрации:
02 дек 2010, 12:39
Спасибо: 12656 / 214
Сообщения: 27984
Год выхода: 2013
Жанр: драма
Режиссер: Паоло Вирдзи
В ролях: Фабрицио Бентивольо, Матильда Джоли, Валерия Бруни-Тедески, Гульельмо Пинелли, Фабрицио Джифуни, Джиджио Алберти, Валерия Голино, Сильвия Коэн, Луиджи Ло Кашио, Бебо Сторти

О фильме:
Озеро Комо, Италия. Велосипедист был сбит джипом в ночь перед Сочельником. Что произошло в ту ночь? Как изменит эта авария судьбы богатой семьи Бернаски и находящейся на грани банкротства семьи Ровелли? Итальянский фильм с большим бюджетом и ворохом фестивальных наград о жизни двух богатых семейств, находящихся на грани банкротства не только в экономическом, но и моральном смысле. Редкий пример увлекательного социального европейского кино, поданного под видом семейной драмы.



Качество: BDRip [1080p]
Видео: MPEG-4 AVC, ~11.8 Mbps, 1920x804, 23,976 fps
Аудио 1: русский AC3, 2 ch, 192 Kbps, 48 kHz        
Аудио 2: итальянский AC3, 6 ch, 640 Kbps, 48 kHz
Продолжительность: 01:50:48
Перевод: Профессиональный (многоголосный)
Субтитры: английские, итальянские
E:с торрентовCena.4eloveka.2013.P.BDRip.1080p.mkv
  General
    Unique ID : 239089262232008931334973509132118900802 (0xB3DEEABD53D49CD2B30C3129A1E3C042)
    Complete name : E:с торрентовCena.4eloveka.2013.P.BDRip.1080p.mkv
    Format : Matroska
    Format version : Version 2
    File size : 10.0 GiB
    Duration : 1h 50mn
    Overall bit rate : 12.9 Mbps
    Encoded date : UTC 2015-03-25 11:32:48
    Writing application : mkvmerge v4.0.0 ('The Stars were mine') сборка от Jun  6 2010 16:18:42
    Writing library : libebml v1.0.0 + libmatroska v1.0.0
  Video #1
    ID : 1
    Format : AVC
    Format/Info : Advanced Video Codec
    Format profile : High@L4.1
    Format settings, CABAC : Yes
    Format settings, ReFrames : 5 frames
    Codec ID : V_MPEG4/ISO/AVC
    Duration : 1h 50mn
    Bit rate : 11.8 Mbps
    Width : 1 920 pixels
    Height : 804 pixels
    Display aspect ratio : 2.40:1
    Frame rate mode : Constant
    Frame rate : 23.976 fps
    Color space : YUV
    Chroma subsampling : 4:2:0
    Bit depth : 8 bits
    Scan type : Progressive
    Bits/(Pixel*Frame) : 0.320
    Stream size : 9.16 GiB (92%)
    Writing library : x264 core 142 r2389+41 02cb608 tMod [8-bit@all X86_64]
    Encoding settings : cabac=1 / ref=5 / deblock=1:-3:-3 / analyse=0x3:0x133 / me=umh / subme=11 / psy=1 / fade_compensate=0.00 / psy_rd=1.05:0.00 / mixed_ref=1 / me_range=64 / chroma_me=1 / trellis=2 / 8x8dct=1 / cqm=0 / deadzone=21,11 / fast_pskip=0 / chroma_qp_offset=-2 / threads=24 / lookahead_threads=6 / sliced_threads=0 / nr=0 / decimate=0 / interlaced=0 / bluray_compat=0 / constrained_intra=0 / fgo=0 / bframes=12 / b_pyramid=2 / b_adapt=2 / b_bias=0 / direct=3 / weightb=1 / open_gop=0 / weightp=2 / keyint=250 / keyint_min=23 / scenecut=40 / intra_refresh=0 / rc_lookahead=120 / rc=crf / mbtree=0 / crf=19.0000 / qcomp=0.70 / qpmin=0:0:0 / qpmax=69:69:69 / qpstep=4 / vbv_maxrate=50000 / vbv_bufsize=62500 / crf_max=0.0 / nal_hrd=none / filler=0 / ip_ratio=1.20 / pb_ratio=1.10 / aq=1:0.60 / aq-sensitivity=10.00 / aq-factor=1.00:1.00:1.00 / aq2=0 / aq3=0 / zones=0,365,crf=14.0/810,1258,crf=12.0/153112,159408,crf=25.0
    Language : Italian
    Default : No
    Forced : No
  Audio #2
    ID : 2
    Format : AC-3
    Format/Info : Audio Coding 3
    Mode extension : CM (complete main)
    Format settings, Endianness : Big
    Codec ID : A_AC3
    Duration : 1h 50mn
    Bit rate mode : Constant
    Bit rate : 192 Kbps
    Channel(s) : 2 channels
    Channel positions : Front: L R
    Sampling rate : 48.0 KHz
    Bit depth : 16 bits
    Compression mode : Lossy
    Stream size : 152 MiB (1%)
    Language : Russian
    Default : Yes
    Forced : Yes
  Audio #3
    ID : 3
    Format : AC-3
    Format/Info : Audio Coding 3
    Mode extension : CM (complete main)
    Format settings, Endianness : Big
    Codec ID : A_AC3
    Duration : 1h 50mn
    Bit rate mode : Constant
    Bit rate : 640 Kbps
    Channel(s) : 6 channels
    Channel positions : Front: L C R, Side: L R, LFE
    Sampling rate : 48.0 KHz
    Bit depth : 16 bits
    Compression mode : Lossy
    Stream size : 507 MiB (5%)
    Language : Italian
    Default : No
    Forced : No
  Text #4
    ID : 4
    Format : PGS
    Codec ID : S_HDMV/PGS
    Codec ID/Info : The same subtitle format used on BDs/HD-DVDs
    Language : English
    Default : No
    Forced : No
  Text #5
    ID : 5
    Format : PGS
    Codec ID : S_HDMV/PGS
    Codec ID/Info : The same subtitle format used on BDs/HD-DVDs
    Language : Italian
    Default : No
    Forced : No
  Menu
    00:00:00.000 : en:00:00:00.000
    00:11:30.315 : en:00:11:30.315
    00:16:54.847 : en:00:16:54.847
    00:21:41.050 : en:00:21:41.050
    00:26:28.253 : en:00:26:28.253
    00:30:17.274 : en:00:30:17.274
    00:35:40.805 : en:00:35:40.805
    00:43:32.819 : en:00:43:32.819
    00:50:51.507 : en:00:50:51.507
    00:54:58.128 : en:00:54:58.128
    01:00:30.126 : en:01:00:30.126
    01:07:11.152 : en:01:07:11.152
    01:14:47.358 : en:01:14:47.358
    01:21:17.206 : en:01:21:17.206
    01:28:23.632 : en:01:28:23.632
    01:32:24.748 : en:01:32:24.748







Вернуться к началу
 Профиль  
 
   Похожие торренты   Автор   Торрент   Размер 
В этой теме нет новых непрочитанных сообщений. Цена сахара / Hoe Duur was de Suiker [Драма, история, мелодрама, 2013] BDRip 1080p, Avo

salma3

0 | 0

13.41 ГБ

В этой теме нет новых непрочитанных сообщений. Цена сахара / Hoe Duur was de Suiker [драма, история, 2013] HDRip-AVC, Avo

salma3

162 | 58

2.17 ГБ

В этой теме нет новых непрочитанных сообщений. Охота на человека / Manhunt [Боевик, триллер, криминал, 2017] BDRip 1080p, Avo

salma3

116 | 63

9.85 ГБ

В этой теме нет новых непрочитанных сообщений. Идеальные незнакомцы / Perfetti sconosciuti (Паоло Дженовезе / Paolo Genovese) [2016г., Италия, комедия, драма, BDRip] Sub

Alfredovich

331 | 20

1.37 ГБ

В этой теме нет новых непрочитанных сообщений. Цена любви (1-4 серии из 4) [мелодрама, 2013] WEB-DLRip-AVC

salma3

49 | 16

2.82 ГБ

В этой теме нет новых непрочитанных сообщений. Цена любви [01-04 из 04] [Мелодрама, 2015] WEB-DLRip 1080p

salma3

23 | 13

6.87 ГБ

В этой теме нет новых непрочитанных сообщений. Три жестоких человека / Three Violent People [Вестерн, 1956] WEB-DL 1080p, Mvo

salma3

12 | 14

9.06 ГБ


Начать новую тему Ответить на тему  [ 1 сообщение ] 




Для Мосгорсуда, Роскомнадзора и рекламодателей:: mosgorsud-torrent[собачка]yandex.ru
cron