Торрент файл
скачать торрент магнет ссылка Добавлен: 20 май 2015, 14:34
Размер: 12.75 ГБ
Сидеров: 20
Личеров: 0
Автор

СообщениеДобавлено: 20 май 2015, 14:34 

Не в сети
Супермодератор
Аватара пользователя
Дата регистрации:
15 фев 2012, 16:44
Возраст: 29
Спасибо: 7421 / 2147
Сообщения: 79842
Год выпуска: 1989
Страна: США
Жанр: триллер, криминал, боевик
Продолжительность: 01:48:20
Перевод: Профессиональный многоголосый, авторский, одноголосый закадровый

Режиссёр: Джон Ирвин

В ролях: Патрик Суэйзи, Адам Болдуин, Хелен Хант, Андреас Катсулас, Билл Пэкстон, Бен Стиллер, Лиам Нисон, Майкл Дж. Поллард, Тед Левайн, Дел Клоуз, Валентино Симо, Пол Греко, Винсент Гастаферро

Описание: Двое из многочисленного семейства Гейтсов живут и работают в Чикаго. Трумэн — полицейский, а Джеральд — водитель грузовика. К мафиозному бизнесмену Джону Изабелле приезжает в Чикаго сын Лоренс, и Джон определяет его в группу к гангстеру Джоуи Росселини, отличающемуся непомерной жестокостью. Вскоре после этого Джоуи в присутствии Лоренса убивает Джеральда Гейтса только за то, что тот не остановил грузовик по требованию гангстеров. Трумэн Гейтс, зная крутой нрав своих родственников и не желая кровопролития, встречается с Джоном Изабеллой и просит того выдать ему убийцу Джеральда, но получает отказ. У Трумэна нет улик, ему надо найти напарника Джеральда, который видел убийц. Между тем, один из деревенских Гейтсов брат Брайер приезжает в Чикаго и громит клуб Джона Изабеллы...



Качество: BDRip 1080p Сравнение с исходником
Формат: MKV
Видео: MPEG-4 AVC, 14.4 Mбит/с, 1920x1080, 23,976 кадра/с
Аудио 1: русский, AC3, 192 kbps, 2 ch, 48 kHz [профессиональный многоголосый]
Аудио 2: русский, AC3, 192 kbps, 2 ch, 48 kHz [авторский, Василий Горчаков]
Аудио 3: русский, AC3, 192 kbps, 2 ch, 48 kHz [одноголосый закадровый]
Аудио 4: английский, DTS, 1509 kbps, 2 ch, 48 kHz [оригинал]
Субтитры: английские (для слабослышащих)

Общее
Уникальный идентификатор : 229741668793510183190006687163195923566 (0xACD6A2CCFBA28E4DB652AE4B49711C6E)
Полное имя : D:VideoБлижайший родственник.1989.BDRip.1080p.mkv
Формат : Matroska
Версия формата : Version 4 / Version 2
Размер файла : 12,7 Гбайт
Продолжительность : 1 ч. 48 м.
Общий поток : 16,8 Мбит/сек
Название фильма : BDRip -- STarankov
Дата кодирования : UTC 2015-05-20 03:12:42
Программа кодирования : mkvmerge v7.9.0 ('Birds') 64bit
Библиотека кодирования : libebml v1.3.1 + libmatroska v1.4.2
_STATISTICS_WRITING_APP : mkvmerge v7.9.0 ('Birds') 64bit
_STATISTICS_WRITING_DATE_UTC : 2015-05-20 03:12:42
_STATISTICS_TAGS : BPS DURATION NUMBER_OF_FRAMES NUMBER_OF_BYTES
DURATION : 01:48:20.544000000
NUMBER_OF_FRAMES : 609426
NUMBER_OF_BYTES : 1226165172

Видео
Идентификатор : 1
Формат : AVC
Формат/Информация : Advanced Video Codec
Профиль формата : High@L4.1
Параметр CABAC формата : Да
Параметр ReFrames формата : 4 кадра
Идентификатор кодека : V_MPEG4/ISO/AVC
Продолжительность : 1 ч. 48 м.
Битрейт : 14,4 Мбит/сек
Ширина : 1920 пикселей
Высота : 1080 пикселей
Соотношение сторон : 16:9
Режим частоты кадров : Постоянный
Частота кадров : 23,976 кадра/сек
Цветовое пространство : YUV
Субдискретизация насыщенности : 4:2:0
Битовая глубина : 8 бит
Тип развёртки : Прогрессивная
Бит/(Пиксели*Кадры) : 0.290
Размер потока : 10,9 Гбайт (86%)
Библиотека кодирования : x264 core 146 r2538 121396c
Настройки программы : cabac=1 / ref=4 / deblock=1:-1:-1 / analyse=0x3:0x113 / me=umh / subme=10 / psy=1 / psy_rd=1.00:0.15 / mixed_ref=1 / me_range=32 / chroma_me=1 / trellis=2 / 8x8dct=1 / cqm=0 / deadzone=21,11 / fast_pskip=1 / chroma_qp_offset=-3 / threads=6 / lookahead_threads=1 / sliced_threads=0 / nr=0 / decimate=1 / interlaced=0 / bluray_compat=0 / constrained_intra=0 / bframes=10 / b_pyramid=2 / b_adapt=2 / b_bias=0 / direct=1 / weightb=1 / open_gop=0 / weightp=2 / keyint=230 / keyint_min=23 / scenecut=40 / intra_refresh=0 / rc_lookahead=40 / rc=crf / mbtree=0 / crf=20.0 / qcomp=0.60 / qpmin=0 / qpmax=69 / qpstep=4 / vbv_maxrate=40000 / vbv_bufsize=50000 / crf_max=0.0 / nal_hrd=none / filler=0 / ip_ratio=1.40 / pb_ratio=1.30 / aq=1:1.00
Язык : English
Default : Да
Forced : Нет

Аудио #1
Идентификатор : 2
Формат : AC-3
Формат/Информация : Audio Coding 3
Расширение режима : CM (complete main)
Параметр Endianness формата : Big
Идентификатор кодека : A_AC3
Продолжительность : 1 ч. 48 м.
Вид битрейта : Постоянный
Битрейт : 192 Кбит/сек
Каналы : 2 канала
Расположение каналов : Front: L R
Частота : 48,0 КГц
Битовая глубина : 16 бит
Метод сжатия : С потерями
Размер потока : 149 Мбайт (1%)
Заголовок : MVO
Язык : Russian
Default : Да
Forced : Нет

Аудио #2
Идентификатор : 3
Формат : AC-3
Формат/Информация : Audio Coding 3
Расширение режима : CM (complete main)
Параметр Endianness формата : Big
Идентификатор кодека : A_AC3
Продолжительность : 1 ч. 48 м.
Вид битрейта : Постоянный
Битрейт : 192 Кбит/сек
Каналы : 2 канала
Расположение каналов : Front: L R
Частота : 48,0 КГц
Битовая глубина : 16 бит
Метод сжатия : С потерями
Размер потока : 149 Мбайт (1%)
Заголовок : AVO (Василий Горчаков)
Язык : Russian
Default : Нет
Forced : Нет

Аудио #3
Идентификатор : 4
Формат : AC-3
Формат/Информация : Audio Coding 3
Расширение режима : CM (complete main)
Параметр Endianness формата : Big
Идентификатор кодека : A_AC3
Продолжительность : 1 ч. 48 м.
Вид битрейта : Постоянный
Битрейт : 192 Кбит/сек
Каналы : 2 канала
Расположение каналов : Front: L R
Частота : 48,0 КГц
Битовая глубина : 16 бит
Метод сжатия : С потерями
Размер потока : 149 Мбайт (1%)
Заголовок : одноголосый закадровый
Язык : Russian
Default : Нет
Forced : Нет

Аудио #4
Идентификатор : 5
Формат : DTS
Формат/Информация : Digital Theater Systems
Режим : 16
Параметр Endianness формата : Big
Идентификатор кодека : A_DTS
Продолжительность : 1 ч. 48 м.
Вид битрейта : Постоянный
Битрейт : 1509 Кбит/сек
Каналы : 2 канала
Расположение каналов : Front: L R
Частота : 48,0 КГц
Битовая глубина : 24 бит
Метод сжатия : С потерями
Размер потока : 1,14 Гбайт (9%)
Заголовок : Original
Язык : English
Default : Нет
Forced : Нет

Текст
Идентификатор : 6
Формат : UTF-8
Идентификатор кодека : S_TEXT/UTF8
Идентификатор кодека/Информация : UTF-8 Plain Text
Заголовок : английские (для слабослышащих)
Язык : English
Default : Нет
Forced : Нет





_________________
Проголосуй за трекер Открытый торрент трекер - RUS-MEDIA.ORG

Проголосуй Открытый торрент трекер - RUS-MEDIA.ORG


Вернуться к началу
 Профиль Отправить личное сообщение  
 
   Похожие торренты   Автор   Торрент   Размер 
В этой теме нет новых непрочитанных сообщений. Ближайший родственник / Next of Kin [триллер, криминал, боевик, 1989] BDRip, Mvo

salma3

140 | 36

1.45 ГБ

В этой теме нет новых непрочитанных сообщений. Ближайший родственник / Next of Kin [ужасы, детектив, 1982] DVDRip, Avo

salma3

0 | 0

745.22 МБ

В этой теме нет новых непрочитанных сообщений. Кинджайт: Запретные темы / Kinjite: Forbidden Subjects [Боевик, триллер, драма, криминал, 1989] BDRip 1080p, Mvo+Avo+Sub

salma3

50 | 27

12.49 ГБ

В этой теме нет новых непрочитанных сообщений. Тюряга / Lock Up [Боевик, триллер, криминал, 1989] Blu-Ray 1080p, Mvo

salma3

0 | 0

27.84 ГБ

В этой теме нет новых непрочитанных сообщений. Жестокий полицейский / Violent cop [боевик, триллер, драма, криминал, 1989] BDRip 720p, Dvo+Sub

salma3

71 | 14

6.33 ГБ

В этой теме нет новых непрочитанных сообщений. Убей меня снова / Kill Me Again [Боевик, триллер, драма, криминал, 1989] BDRip, Mvo

salma3

0 | 1

1.45 ГБ

В этой теме нет новых непрочитанных сообщений. Голубая сталь / Blue Steel [боевик, триллер, драма, криминал, 1989] BDRip 720p, Mvo

salma3

63 | 24

7.67 ГБ


Начать новую тему Ответить на тему  [ 1 сообщение ] 




Для Мосгорсуда, Роскомнадзора и рекламодателей:: mosgorsud-torrent[собачка]yandex.ru
cron