Торрент файл
скачать торрент магнет ссылка Добавлен: 22 дек 2015, 21:11
Размер: 5.37 ГБ
Сидеров: 831
Личеров: 61
Автор

СообщениеДобавлено: 22 дек 2015, 21:11 

Не в сети
Зам. Админа
Аватара пользователя
Дата регистрации:
02 дек 2010, 12:39
Спасибо: 12656 / 214
Сообщения: 27984


Название: В изгнании
Оригинальное название: Outcast
Год выпуска: 2014
Жанр: Боевик, приключения
Выпущено: Китай, США, Франция, 22h22, Media Max Productions, Notorious Films
Режиссер: Ник Пауэлл
В ролях: Николас Кейдж, Хейден Кристенсен, Лю Ифэй, Рон Смуренбург, Энди Он, Джавед Эль Берни, Фернандо Чиен, Престон Бэйкер, Байрон Лосон, Томер Оз

О фильме: Сюжет фильма разворачивается в Китае, в Средние века. Наследник императорского престола становится целью убийства у своего презираемого старшего брата и вынужден бежать. Единственное, что остается молодому принцу, – это защита его сестры при помощи воина-крестоносца (Хейден Кристенсен), которому, в свою очередь, придется смириться с собственными демонами и, сплотившись с некогда легендарным воином, ныне ставшим бандитом (Николас Кейдж), вернуть принца на его законное место на троне...



Качество: BDRip 720p
Видео: MPEG-4 AVC, 6700 Кбит/с, 1280x538
Аудио: Русский (АС3, 6 ch, 448 Кбит/с), английский (АС3, 6 ch, 640 Кбит/с)
Продолжительность:01:38:47
Озвучивание: Профессиональное многоголосое- Лицензия
Субтитры: Английские

Семпл
General
Unique ID : 174870598265119414220413084867035603250 (0x838EDA271A77E54A9E9ADE70D96F2132)
Complete name : D:ВидеоB.Y3gHaHye.2014.P.BDRip.720p.mkv
Format : Matroska
Format version : Version 4 / Version 2
File size : 5.37 GiB
Duration : 1h 38mn
Overall bit rate : 7 786 Kbps
Movie name : Outcast.2014.720p.BluRay.DD5.1.x264-BiTHD
Encoded date : UTC 2015-12-22 12:47:10
Writing application : mkvmerge v8.3.0 ('Over the Horizon') 64bit
Writing library : libebml v1.3.1 + libmatroska v1.4.2

Video
ID : 1
Format : AVC
Format/Info : Advanced Video Codec
Format profile : High@L4.1
Format settings, CABAC : Yes
Format settings, ReFrames : 4 frames
Codec ID : V_MPEG4/ISO/AVC
Duration : 1h 38mn
Bit rate : 6 700 Kbps
Width : 1 280 pixels
Height : 538 pixels
Display aspect ratio : 2.40:1
Frame rate mode : Constant
Frame rate : 23.976 fps
Color space : YUV
Chroma subsampling : 4:2:0
Bit depth : 8 bits
Scan type : Progressive
Bits/(Pixel*Frame) : 0.406
Stream size : 4.52 GiB (84%)
Title : BiT-HDTV.com
Writing library : x264 core 130 r2273 b3065e6
Encoding settings : cabac=1 / ref=3 / deblock=1:-1:-1 / analyse=0x3:0x113 / me=hex / subme=7 / psy=1 / psy_rd=1.00:0.15 / mixed_ref=1 / me_range=16 / chroma_me=1 / trellis=1 / 8x8dct=1 / cqm=0 / deadzone=21,11 / fast_pskip=1 / chroma_qp_offset=-3 / threads=36 / lookahead_threads=4 / sliced_threads=0 / nr=0 / decimate=1 / interlaced=0 / bluray_compat=0 / constrained_intra=0 / bframes=3 / b_pyramid=2 / b_adapt=1 / b_bias=0 / direct=1 / weightb=1 / open_gop=0 / weightp=2 / keyint=240 / keyint_min=24 / scenecut=40 / intra_refresh=0 / rc_lookahead=40 / rc=2pass / mbtree=1 / bitrate=6700 / ratetol=1.0 / qcomp=0.60 / qpmin=0 / qpmax=69 / qpstep=4 / cplxblur=20.0 / qblur=0.5 / vbv_maxrate=62500 / vbv_bufsize=78125 / nal_hrd=none / ip_ratio=1.40 / aq=1:1.00
Language : English
Default : Yes
Forced : No
Color primaries : BT.709
Transfer characteristics : BT.709
Matrix coefficients : BT.709

Audio #1
ID : 2
Format : AC-3
Format/Info : Audio Coding 3
Mode extension : CM (complete main)
Format settings, Endianness : Big
Codec ID : A_AC3
Duration : 1h 38mn
Bit rate mode : Constant
Bit rate : 448 Kbps
Channel(s) : 6 channels
Channel positions : Front: L C R, Side: L R, LFE
Sampling rate : 48.0 KHz
Bit depth : 16 bits
Compression mode : Lossy
Stream size : 317 MiB (6%)
Language : Russian
Default : Yes
Forced : No

Audio #2
ID : 3
Format : AC-3
Format/Info : Audio Coding 3
Mode extension : CM (complete main)
Format settings, Endianness : Big
Codec ID : A_AC3
Duration : 1h 38mn
Bit rate mode : Constant
Bit rate : 640 Kbps
Channel(s) : 6 channels
Channel positions : Front: L C R, Side: L R, LFE
Sampling rate : 48.0 KHz
Bit depth : 16 bits
Compression mode : Lossy
Stream size : 452 MiB (8%)
Language : English
Default : No
Forced : No

Text
ID : 4
Format : PGS
Muxing mode : zlib
Codec ID : S_HDMV/PGS
Codec ID/Info : The same subtitle format used on BDs/HD-DVDs
Language : English
Default : No
Forced : No

Menu
00:00:00.000 : en:Chapter 1
00:09:00.582 : en:Chapter 2
00:18:38.284 : en:Chapter 3
00:28:20.866 : en:Chapter 4
00:36:43.410 : en:Chapter 5
00:43:45.206 : en:Chapter 6
00:55:36.250 : en:Chapter 7
01:03:19.004 : en:Chapter 8
01:10:21.968 : en:Chapter 9
01:21:25.923 : en:Chapter 10
01:31:46.793 : en:Chapter 11





Вернуться к началу
 Профиль  
 
   Похожие торренты   Автор   Торрент   Размер 
В этой теме нет новых непрочитанных сообщений. Годзилла / Godzilla [фантастика, боевик, приключения, 2014] BDRip 720p, Dub [Лицензия]

salma3

0 | 0

5.36 ГБ

В этой теме нет новых непрочитанных сообщений. Бен-Гур / Ben-Hur ( боевик, драма, приключения, 2016) BDRip 720p от AleksSin | Лицензия

marya111

88 | 15

5.82 ГБ

В этой теме нет новых непрочитанных сообщений. Бен-Гур / Ben-Hur [боевик, драма, приключения, 2016] BDRip 720p, Du [iPad] [Лицензия]

salma3

0 | 0

2.62 ГБ

В этой теме нет новых непрочитанных сообщений. 007: СПЕКТР / Spectre [боевик, триллер, приключения, 2015] BDRip 720p, Dub+Avo+Sub [Лицензия]

Dracon

504 | 16

12.73 ГБ

В этой теме нет новых непрочитанных сообщений. Варкрафт / Warcraft [фэнтези, боевик, приключения, 2016] BDRip 720p, Dub [лицензия]

salma3

104 | 12

6.36 ГБ

В этой теме нет новых непрочитанных сообщений. Рэмпейдж / Rampage [фантастика, боевик, приключения, 2018] BDRip 720p, Dub [Лицензия]

salma3

0 | 0

5.07 ГБ

В этой теме нет новых непрочитанных сообщений. 5-я волна / The 5th Wave [фантастика, боевик, триллер, приключения, 2016] BDRip 720p, Dub [лицензия]

salma3

253 | 16

6 ГБ


Начать новую тему Ответить на тему  [ 1 сообщение ] 




Для Мосгорсуда, Роскомнадзора и рекламодателей:: mosgorsud-torrent[собачка]yandex.ru
cron