Торрент файл
скачать торрент магнет ссылка Добавлен: 28 дек 2015, 11:31
Размер: 3.38 ГБ
Сидеров: 819
Личеров: 77
Автор

СообщениеДобавлено: 28 дек 2015, 11:31 

Не в сети
Зам. Админа
Аватара пользователя
Дата регистрации:
02 дек 2010, 12:39
Спасибо: 12656 / 214
Сообщения: 28009


Информация о фильме
Название: Убойный огонек
Оригинальное название: Mi gran noche
Год выхода: 2015
Жанр: комедия
Режиссер: Алекс де ла Иглесиа
В ролях: Рафаэль, Марио Касас, Пепон Ниэто, Бланка Суарес, Уго Сильва, Кармен Мачи, Луис Кальехо, Карлос Аресес, Энрике Вильен, Сантьяго Сегура

О фильме: Телезапись зрелищного «новогоднего огонька» оборачивается абсолютным сумасшествием, когда череда несчастных случаев обрушивается на съемочную площадку один за другим. Съемочный кран только что разгромил столик с массовкой… включая массовку. Одержимая фанатка шантажирует Адана, сексапильную сверх всякой меры поп-звезду. За легендарным певцом Альфонсо открывает вооруженную охоту сумасшедший автор песен. Один из актеров массовки, Хосе, пытает свое счастье с прекрасной Паломой, однако всех ее мужчин обычно преследуют беды. Тем временем снаружи разъяренная толпа требует ареста бесчестного продюсера шоу. В любой момент все окончательно выйдет из под контроля. Как всегда, «праздник» подкрался незаметно!



Выпущено: Испания / Canal Plus, Enrique Cerezo Producciones Cinematograficas S.A., Telefonica Studios, TVE
Продолжительность: 01:37:02
Озвучивание: Профессиональное (многоголосное) [iTunes]

Файл
Формат: MKV (x264)
Качество: WEB-DL 1080p
Видео: 4499 kb/s, 1920x812
Аудио: AC3, 384 kb/s (6 ch)

Format : Matroska
Format version : Version 4 / Version 2
File size : 3.38 GiB
Duration : 1h 37mn
Overall bit rate : 4 982 Kbps
Encoded date : UTC 2015-12-27 20:00:07
Writing application : mkvmerge v8.3.0 ('Over the Horizon') 64bit
Writing library : libebml v1.3.1 + libmatroska v1.4.2

Video
ID : 1
Format : AVC
Format/Info : Advanced Video Codec
Format profile : High@L4
Format settings, CABAC : Yes
Format settings, ReFrames : 5 frames
Codec ID : V_MPEG4/ISO/AVC
Duration : 1h 37mn
Bit rate : 4 499 Kbps
Width : 1 920 pixels
Height : 812 pixels
Display aspect ratio : 2.35:1
Frame rate mode : Constant
Frame rate : 24.000 fps
Color space : YUV
Chroma subsampling : 4:2:0
Bit depth : 8 bits
Scan type : Progressive
Bits/(Pixel*Frame) : 0.120
Stream size : 3.05 GiB (90%)
Language : English
Default : Yes
Forced : No
Color range : Limited
Color primaries : BT.709
Transfer characteristics : BT.709
Matrix coefficients : BT.709

Audio
ID : 2
Format : AC-3
Format/Info : Audio Coding 3
Mode extension : CM (complete main)
Format settings, Endianness : Big
Codec ID : A_AC3
Duration : 1h 37mn
Bit rate mode : Constant
Bit rate : 384 Kbps
Channel(s) : 6 channels
Channel positions : Front: L C R, Side: L R, LFE
Sampling rate : 48.0 KHz
Bit depth : 16 bits
Compression mode : Lossy
Stream size : 267 MiB (8%)
Language : Russian
Default : Yes
Forced : No

Menu
00:00:00.000 : en:Глава 1
00:05:10.000 : en:Глава 2
00:11:52.000 : en:Глава 3
00:18:28.000 : en:Глава 4
00:23:49.000 : en:Глава 5
00:29:56.000 : en:Глава 6
00:35:41.000 : en:Глава 7
00:40:53.000 : en:Глава 8
00:46:39.000 : en:Глава 9
00:51:44.000 : en:Глава 10
00:57:05.000 : en:Глава 11
01:02:32.000 : en:Глава 12
01:08:21.000 : en:Глава 13
01:13:47.000 : en:Глава 14
01:19:33.000 : en:Глава 15
01:25:02.000 : en:Глава 16
01:30:23.000 : en:Глава 17



Вернуться к началу
 Профиль  
 
   Похожие торренты   Автор   Торрент   Размер 
В этой теме нет новых непрочитанных сообщений. Убойный огонек / Mi gran noche (Алекс де ла Иглесиа) [комедия, 2015] WEB-DLRip, Mvo [iTunes]

Dracon

4133 | 296

1.46 ГБ

В этой теме нет новых непрочитанных сообщений. Убойный огонек / Mi gran noche (Алекс де ла Иглесиа / Álex de la Iglesia) [2015г., Испания, комедия, WEB-DL 720p]MVO

Alfredovich

956 | 65

3 ГБ

В этой теме нет новых непрочитанных сообщений. Шнайдер против Бакса / Schneider vs. Bax (Алекс ван Вармердам) [Триллер, комедия, 2015] WEB-DL 1080p, dub [iTunes]

Dracon

66 | 3

3.18 ГБ

В этой теме нет новых непрочитанных сообщений. Шнайдер против Бакса / Schneider vs. Bax (Алекс ван Вармердам) [Триллер, комедия, 2015] WEB-DLRip, dub [iTunes]

Dracon

122 | 8

1.37 ГБ

В этой теме нет новых непрочитанных сообщений. Шнайдер против Бакса / Schneider vs. Bax (Алекс ван Вармердам) [Триллер, комедия, 2015] WEB-DL 720p, Dub [iTunes]

Dracon

344 | 3

2.88 ГБ

В этой теме нет новых непрочитанных сообщений. Сикарии: Ночью в тишине / Sicarivs: La noche y el silencio [Триллер, 2015] BDRip, Avo

salma3

227 | 45

1.45 ГБ

В этой теме нет новых непрочитанных сообщений. Сикарии: Ночью в тишине / Sicarivs: La noche y el silencio (Триллер, криминал, драма, 2015) BDRip 720р | A

marya111

213 | 37

4.27 ГБ


Начать новую тему Ответить на тему  [ 1 сообщение ] 




Для Мосгорсуда, Роскомнадзора и рекламодателей:: mosgorsud-torrent[собачка]yandex.ru
cron