Торрент файл
скачать торрент магнет ссылка Добавлен: 08 янв 2016, 15:52
Размер: 3.7 ГБ
Сидеров: 5167
Личеров: 283
Автор

СообщениеДобавлено: 08 янв 2016, 15:52 

Не в сети
Зам. Админа
Аватара пользователя
Дата регистрации:
02 дек 2010, 12:39
Спасибо: 12656 / 214
Сообщения: 27984
Голос улиц / Straight Outta Compton

«Самая опасная группа в мире»

Русское название: Голос улиц
Оригинальное название: Straight Outta Compton
Год выпуска: 2015
Жанр: драма, биография, музыка
Выпущено: США
Режиссер: Ф. Гэри Грей
В ролях: О’Ши Джексон мл. , Кори Хоукинс , Джейсон Митчелл , Нил Браун мл. , Элдис Ходж , Марлон Йэтс мл. , Р. Маркус Тейлор , Карра Паттерсон , Александра Шипп , Пол Джаматти , Елена Гуд , Кит Пауэрс
Перевод: Дублированный - [iTunes]

Сюжет фильма:
История группы N.W.A. из Комптона, штат Калифорния, которая в середине 1980-х произвела революцию в хип-хоп музыке.


Качество: BDRip 720p
Формат: AVC (библиотека кодирования x.264)
Контейнер (Расширение): MKV
Видео: 1280x536, 2513 Кбит/сек, 23,976 кадр/сек, 0,153 Бит/[Пиксели*Кадры]
Аудио №1: русский / AC3 / 5.1 / 48 kHz / 384 kbps / |Дублированный - [iTunes]|
Аудио №2: английский / AC3 / 5.1 / 48 kHz / 640 kbps /
Навигация по главам(Чаптеры): есть
Продолжительность: 02:26:38
Автор рипа: Сообщество:

Format : Matroska
Format version : Version 2
File size : 3.70 GiB
Duration : 2h 26mn
Overall bit rate : 3 609 Kbps
Movie name : Straight Outta Compton.(2015).BDRip.720p.[denis100]
Encoded date : UTC 2016-01-08 10:14:32
Writing application : mkvmerge v5.8.0 ('No Sleep / Pillow') built on Sep 2 2012 15:37:04
Writing library : libebml v1.2.3 + libmatroska v1.3.0

Video
ID : 1
Format : AVC
Format/Info : Advanced Video Codec
Format profile : High@L4.1
Format settings, CABAC : Yes
Format settings, ReFrames : 11 frames
Codec ID : V_MPEG4/ISO/AVC
Duration : 2h 26mn
Bit rate : 2 513 Kbps
Width : 1 280 pixels
Height : 536 pixels
Display aspect ratio : 2.40:1
Frame rate : 23.976 fps
Color space : YUV
Chroma subsampling : 4:2:0
Bit depth : 8 bits
Scan type : Progressive
Bits/(Pixel*Frame) : 0.153
Stream size : 2.57 GiB (70%)
Title : Straight Outta Compton.(2015).BDRip.720p.[denis100]
Writing library : x264 core 148 r2638 7599210
Encoding settings : cabac=1 / ref=11 / deblock=1:-3:-3 / analyse=0x3:0x133 / me=umh / subme=11 / psy=1 / psy_rd=1.00:0.00 / mixed_ref=1 / me_range=32 / chroma_me=1 / trellis=2 / 8x8dct=1 / cqm=0 / deadzone=21,11 / fast_pskip=0 / chroma_qp_offset=-2 / threads=6 / lookahead_threads=1 / sliced_threads=0 / nr=0 / decimate=1 / interlaced=0 / bluray_compat=0 / constrained_intra=0 / bframes=8 / b_pyramid=2 / b_adapt=2 / b_bias=0 / direct=3 / weightb=1 / open_gop=0 / weightp=2 / keyint=240 / keyint_min=23 / scenecut=40 / intra_refresh=0 / rc=crf / mbtree=0 / crf=18.0 / qcomp=0.60 / qpmin=0 / qpmax=69 / qpstep=4 / ip_ratio=1.40 / pb_ratio=1.30 / aq=1:1.00
Language : English
Default : Yes
Forced : No

Audio #1
ID : 2
Format : AC-3
Format/Info : Audio Coding 3
Mode extension : CM (complete main)
Codec ID : A_AC3
Duration : 2h 26mn
Bit rate mode : Constant
Bit rate : 384 Kbps
Channel(s) : 6 channels
Channel positions : Front: L C R, Side: L R, LFE
Sampling rate : 48.0 KHz
Bit depth : 16 bits
Compression mode : Lossy
Stream size : 403 MiB (11%)
Title : DUB, iTunes
Language : Russian
Default : Yes
Forced : No

Audio #2
ID : 3
Format : AC-3
Format/Info : Audio Coding 3
Mode extension : CM (complete main)
Codec ID : A_AC3
Duration : 2h 26mn
Bit rate mode : Constant
Bit rate : 640 Kbps
Channel(s) : 6 channels
Channel positions : Front: L C R, Side: L R, LFE
Sampling rate : 48.0 KHz
Bit depth : 16 bits
Compression mode : Lossy
Stream size : 671 MiB (18%)
Language : English
Default : No
Forced : No

Menu
00:00:00.000 : en:00:00:00.000
00:05:07.932 : en:00:05:07.932
00:09:05.378 : en:00:09:05.378
00:16:27.485 : en:00:16:27.485
00:24:58.121 : en:00:24:58.121
00:33:25.545 : en:00:33:25.545
00:43:26.269 : en:00:43:26.269
00:51:24.496 : en:00:51:24.496
00:58:08.317 : en:00:58:08.317
01:03:50.784 : en:01:03:50.784
01:11:24.070 : en:01:11:24.070
01:17:36.650 : en:01:17:36.650
01:24:02.161 : en:01:24:02.161
01:33:53.085 : en:01:33:53.085
01:40:25.351 : en:01:40:25.351
01:47:25.729 : en:01:47:25.729
01:57:53.314 : en:01:57:53.314
02:07:57.417 : en:02:07:57.417
02:13:39.010 : en:02:13:39.010
02:19:13.761 : en:02:19:13.761
x264 [info]: frame I:1618 Avg QP:13.88 size: 67064
x264 [info]: frame P:48026 Avg QP:15.13 size: 26791
x264 [info]: frame B:161318 Avg QP:18.06 size: 8962




Вернуться к началу
 Профиль  
 
   Похожие торренты   Автор   Торрент   Размер 
В этой теме нет новых непрочитанных сообщений. Голос улиц / Straight Outta Compton (Ф. Гэри Грей) [драма, биография, музыка, 2015] BDRip-AVC, Dub [лицензия]

Dracon

348 | 13

1.46 ГБ

В этой теме нет новых непрочитанных сообщений. Голос улиц / Straight Outta Compton [драма, биография, музыка, 2015] BDRip 1080p, Dub [лицензия]

salma3

92 | 4

7.76 ГБ

В этой теме нет новых непрочитанных сообщений. Голос улиц / Straight Outta Compton [драма, биография, музыка, 2015] HDRip, Dub [лицензия]

Dracon

23 | 0

2.18 ГБ

В этой теме нет новых непрочитанных сообщений. Форсаж 8 / The Fate of the Furious [2017] ( Ф. Гэри Грей) [Боевик, триллер, криминал, приключения ] [BDRip 1080p] [DD5.1] [Dub Rus, Englis + Subs Rus , ENG] [ iTunes]

Враг Нароода

1 | 1

25.28 ГБ

В этой теме нет новых непрочитанных сообщений. Сотни улиц / A Hundred Streets [драма, 2016] BDRip 720p, Mvo+Sub [iTunes]

salma3

222 | 66

5.77 ГБ

В этой теме нет новых непрочитанных сообщений. Допинг / The Program [Драма, биография, спорт, 2015] BDRip 720p, Mvo [iTunes]

Dracon

663 | 12

4.94 ГБ

В этой теме нет новых непрочитанных сообщений. Форсаж 8 / The Fate of the Furious [2017] ( Ф. Гэри Грей) [Боевик, триллер, криминал, приключения , WEB-DLRip 1080p] [DD5.1] [Dub Rus, Englis + Subs Rus , ENG] [ iTunes]

Враг Нароода

48 | 33

9.33 ГБ


Начать новую тему Ответить на тему  [ 1 сообщение ] 




Для Мосгорсуда, Роскомнадзора и рекламодателей:: mosgorsud-torrent[собачка]yandex.ru
cron