Торрент файл
скачать торрент магнет ссылка Добавлен: 27 фев 2016, 21:48
Размер: 3.1 ГБ
Сидеров: 77
Личеров: 20
Автор

СообщениеДобавлено: 27 фев 2016, 21:48 

В сети
Супермодератор
Аватара пользователя
Дата регистрации:
15 фев 2012, 16:44
Возраст: 29
Спасибо: 7422 / 2147
Сообщения: 79959
Год выхода: 1970
Жанр: мюзикл, комедия
Режиссер: Серж Корбер
В ролях:
Луи де Фюнес — Эван Эванс, Оливье де Фюнес — Филипп, Ноэль Адам — Франсуаза, Пак Адамс — Лина, Поль Пребуа — директор гостиницы, Франко Фабрици — жених Франсуазы, Мишлин Люссьони — пьяная женщина на яхте, Мартина Келли — танцовщица, которая выходит замуж, Тиберио Мурджа — отец сицилианки, Марко Тулли — комиссар, Франко Вольпи — маркиз.

О фильме:
Балетный импресарио Эван-Эванс вместе со своим племянником Филиппом тщательно следит, чтобы его танцовщицы не имели контактов с мужчинами, так как это может помешать их работе. Но во время турне по Италии выясняется, что у одной из девушек уже есть ребенок. Тирану Эвансу приходится опекать его, так как он считает, что малыш — сын Филиппа.
Через некоторое время появляется еще один ребенок, на этот раз — действительно внучатый племянник Эванса. Новоиспеченный дедушка готов сойти с ума, а большое турне в итоге превращается в большой сумасшедший дом.



Страна: Франция
Студия: Gaumont Distribution, Gaumont International
Продолжительность: 01:25:30
Перевод: Дублированный, Профессиональный двухголосый, Оригинал
Файл
Кодек: x264
Качество: BDRip 720p
Видео: 1280x544 (2,35:1), 24.000 fps, 3929 kbps
Звук:
Аудио #1: AC3, 192 Kbps, 48.0 KHz, 2 ch (Rus) Дублированный, Союзмультфильм
Аудио #2: AC3, 192 Kbps, 48.0 KHz, 2 ch (Rus) Профессиональный двухголосый, Студия "Инис"
Аудио #3: AC3, 192 Kbps, 48.0 KHz, 2 ch (Rus) Профессиональный двухголосый, НТВ+
Аудио #4: AC3, 192 Kbps, 48.0 KHz, 2 ch (Ukr) Профессиональный двухголосый, 1+1
Аудио #5: AC3, 192 Kbps, 48.0 KHz, 2 ch (Ukr) Профессиональный двухголосый, СТБ
Аудио #6: AC3, 192 Kbps, 48.0 KHz, 2 ch (Fre) Оригинал
Субтитры: Русские, Английские, Французские


Формат : Matroska
Версия формата : Version 2
Размер файла : 3,10 Гбайт
Продолжительность : 1 ч. 25 м.
Общий поток : 5184 Кбит/сек
Дата кодирования : UTC 2016-02-25 18:34:41
Программа кодирования : mkvmerge v5.4.0 ('Piper') built on Mar 10 2012 13:34:39
Библиотека кодирования : libebml v1.2.3 + libmatroska v1.3.0
Видео
Идентификатор : 1
Формат : AVC
Формат/Информация : Advanced Video Codec
Профиль формата : High@L4.1
Параметр CABAC формата : Да
Параметр ReFrames формата : 9 кадров
Идентификатор кодека : V_MPEG4/ISO/AVC
Продолжительность : 1 ч. 25 м.
Битрейт : 3929 Кбит/сек
Ширина : 1280 пикселей
Высота : 544 пикселя
Соотношение сторон : 2,35:1
Режим частоты кадров : Постоянный
Частота кадров : 24,000 кадра/сек
Цветовое пространство : YUV
Субдискретизация насыщенности : 4:2:0
Битовая глубина : 8 бит
Тип развёртки : Прогрессивная
Бит/(Пиксели*Кадры) : 0.235
Размер потока : 2,35 Гбайт (76%)
Заголовок : L'Homme Orchestre / The Band / Человек-оркестр (1970)
Библиотека кодирования : x264 core 146 r2538 121396c
Настройки программы : cabac=1 / ref=9 / deblock=1:-3:-3 / analyse=0x3:0x113 / me=umh / subme=10 / psy=1 / psy_rd=1.00:0.15 / mixed_ref=1 / me_range=32 / chroma_me=1 / trellis=2 / 8x8dct=1 / cqm=0 / deadzone=21,11 / fast_pskip=1 / chroma_qp_offset=-3 / threads=6 / lookahead_threads=1 / sliced_threads=0 / nr=0 / decimate=1 / interlaced=0 / bluray_compat=0 / constrained_intra=0 / bframes=9 / b_pyramid=2 / b_adapt=2 / b_bias=0 / direct=1 / weightb=1 / open_gop=0 / weightp=2 / keyint=230 / keyint_min=23 / scenecut=40 / intra_refresh=0 / rc_lookahead=40 / rc=crf / mbtree=0 / crf=19.3 / qcomp=0.60 / qpmin=0 / qpmax=69 / qpstep=4 / vbv_maxrate=40000 / vbv_bufsize=50000 / crf_max=0.0 / nal_hrd=none / filler=0 / ip_ratio=1.40 / pb_ratio=1.30 / aq=1:1.00
Язык : French
Default : Да
Forced : Нет
Аудио #1
Идентификатор : 2
Формат : AC-3
Формат/Информация : Audio Coding 3
Расширение режима : CM (complete main)
Параметр Endianness формата : Big
Идентификатор кодека : A_AC3
Продолжительность : 1 ч. 25 м.
Вид битрейта : Постоянный
Битрейт : 192 Кбит/сек
Каналы : 2 канала
Расположение каналов : Front: L R
Частота : 48,0 КГц
Битовая глубина : 16 бит
Метод сжатия : С потерями
Размер потока : 117 Мбайт (4%)
Заголовок : DUB (Russian) Союзмультфильм
Язык : Russian
Default : Да
Forced : Нет
Аудио #2
Идентификатор : 3
Формат : AC-3
Формат/Информация : Audio Coding 3
Расширение режима : CM (complete main)
Параметр Endianness формата : Big
Идентификатор кодека : A_AC3
Продолжительность : 1 ч. 25 м.
Вид битрейта : Постоянный
Битрейт : 192 Кбит/сек
Каналы : 2 канала
Расположение каналов : Front: L R
Частота : 48,0 КГц
Битовая глубина : 16 бит
Метод сжатия : С потерями
Размер потока : 117 Мбайт (4%)
Заголовок : DVO (Russian) Студия "Инис"
Язык : Russian
Default : Нет
Forced : Нет
Аудио #3
Идентификатор : 4
Формат : AC-3
Формат/Информация : Audio Coding 3
Расширение режима : CM (complete main)
Параметр Endianness формата : Big
Идентификатор кодека : A_AC3
Продолжительность : 1 ч. 25 м.
Вид битрейта : Постоянный
Битрейт : 192 Кбит/сек
Каналы : 2 канала
Расположение каналов : Front: L R
Частота : 48,0 КГц
Битовая глубина : 16 бит
Метод сжатия : С потерями
Размер потока : 117 Мбайт (4%)
Заголовок : DVO (Russian) НТВ+
Язык : Russian
Default : Нет
Forced : Нет
Аудио #4
Идентификатор : 5
Формат : AC-3
Формат/Информация : Audio Coding 3
Расширение режима : CM (complete main)
Параметр Endianness формата : Big
Идентификатор кодека : A_AC3
Продолжительность : 1 ч. 25 м.
Вид битрейта : Постоянный
Битрейт : 192 Кбит/сек
Каналы : 2 канала
Расположение каналов : Front: L R
Частота : 48,0 КГц
Битовая глубина : 16 бит
Метод сжатия : С потерями
Размер потока : 117 Мбайт (4%)
Заголовок : DVO (Ukrainian) 1+1
Язык : Ukrainian
Default : Нет
Forced : Нет
Аудио #5
Идентификатор : 6
Формат : AC-3
Формат/Информация : Audio Coding 3
Расширение режима : CM (complete main)
Параметр Endianness формата : Big
Идентификатор кодека : A_AC3
Продолжительность : 1 ч. 25 м.
Вид битрейта : Постоянный
Битрейт : 192 Кбит/сек
Каналы : 2 канала
Расположение каналов : Front: L R
Частота : 48,0 КГц
Битовая глубина : 16 бит
Метод сжатия : С потерями
Размер потока : 117 Мбайт (4%)
Заголовок : DVO (Ukrainian) СТБ
Язык : Ukrainian
Default : Нет
Forced : Нет
Аудио #6
Идентификатор : 7
Формат : AC-3
Формат/Информация : Audio Coding 3
Расширение режима : CM (complete main)
Параметр Endianness формата : Big
Идентификатор кодека : A_AC3
Продолжительность : 1 ч. 25 м.
Вид битрейта : Постоянный
Битрейт : 192 Кбит/сек
Каналы : 2 канала
Расположение каналов : Front: L R
Частота : 48,0 КГц
Битовая глубина : 16 бит
Метод сжатия : С потерями
Размер потока : 117 Мбайт (4%)
Заголовок : Original (French)
Язык : French
Default : Нет
Forced : Нет
Текст #1
Идентификатор : 8
Формат : UTF-8
Идентификатор кодека : S_TEXT/UTF8
Идентификатор кодека/Информация : UTF-8 Plain Text
Заголовок : Rus (Союзмультфильм)
Язык : Russian
Default : Нет
Forced : Нет
Текст #2
Идентификатор : 9
Формат : UTF-8
Идентификатор кодека : S_TEXT/UTF8
Идентификатор кодека/Информация : UTF-8 Plain Text
Заголовок : Rus (НТВ+)
Язык : Russian
Default : Нет
Forced : Нет
Текст #3
Идентификатор : 10
Формат : UTF-8
Идентификатор кодека : S_TEXT/UTF8
Идентификатор кодека/Информация : UTF-8 Plain Text
Заголовок : Eng
Язык : English
Default : Нет
Forced : Нет
Текст #4
Идентификатор : 11
Формат : UTF-8
Идентификатор кодека : S_TEXT/UTF8
Идентификатор кодека/Информация : UTF-8 Plain Text
Заголовок : Fre
Язык : French
Default : Нет
Forced : Нет

Релиз от: msltel


_________________
Проголосуй за трекер Открытый торрент трекер - RUS-MEDIA.ORG

Проголосуй Открытый торрент трекер - RUS-MEDIA.ORG


Вернуться к началу
 Профиль Отправить личное сообщение  
 
   Похожие торренты   Автор   Торрент   Размер 
В этой теме нет новых непрочитанных сообщений. Человек с поезда / L'homme du train [философская драма, 2002] BDRip 720p, Mvo

salma3

65 | 11

4.82 ГБ

В этой теме нет новых непрочитанных сообщений. Ослиная шкура / Peau d'âne [мюзикл, фэнтези, драма, 1970] BDRip 720p, Mvo

salma3

0 | 0

4.16 ГБ

В этой теме нет новых непрочитанных сообщений. Человек – швейцарский нож / Swiss Army Man [Мюзикл, фэнтези, драма, 2016] BDRip 720p, dub [Лицензия]

salma3

0 | 0

6.05 ГБ

В этой теме нет новых непрочитанных сообщений. Любовь не по размеру / Un homme a la hauteur [комедия, 2016] BDRip 720p, Dub [лицензия]

salma3

318 | 50

4.06 ГБ

В этой теме нет новых непрочитанных сообщений. Большой веселый мюзикл / The Big Gay Musical [Комедия, мюзикл, драма, мелодрама, музыка, 2009] BDRip 720p, Avo+Sub

salma3

20 | 5

3.82 ГБ

В этой теме нет новых непрочитанных сообщений. Человек с поезда / L'homme du train [философская драма, 2002] BDRemux, Mvo

salma3

8 | 3

18.16 ГБ

В этой теме нет новых непрочитанных сообщений. В ясный день увидишь вечность / On a Clear Day You Can See Forever [мюзикл, фэнтези, комедия, 1970] WEB-DLRip, Mvo

salma3

38 | 7

2.18 ГБ


Начать новую тему Ответить на тему  [ 1 сообщение ] 




Для Мосгорсуда, Роскомнадзора и рекламодателей:: mosgorsud-torrent[собачка]yandex.ru
cron