Торрент файл
скачать торрент магнет ссылка Добавлен: 12 мар 2016, 16:41
Размер: 5.83 ГБ
Сидеров: 239
Личеров: 17
Автор

СообщениеДобавлено: 12 мар 2016, 16:41 

Не в сети
Супермодератор
Аватара пользователя
Дата регистрации:
15 фев 2012, 16:44
Возраст: 29
Спасибо: 7421 / 2147
Сообщения: 79901
На гребне волны / Point Break

Перевод: Профессиональный (полное дублирование) лицензия, субтитры: английские
Формат: BDRip, MKV, H.264, AC3/DTS
Страна: Германия, Китай, США
Режиссер: Эриксон Кор
Жанр: боевик, триллер, криминал, спорт
Продолжительность: 01:53:50
Год выпуска: 2015

В ролях: Люк Брейси, Эдгар Рамирес, Рэй Уинстон, Тереза Палмер, Матиас Варела, Клеменс Шик, Тобиас Зантельман, Макс Тириот, Делрой Линдо, Николай Кински

Описание: Джонни — молодой агент ФБР, специализирующийся на работе под прикрытием. Он не раз выходил из самых сложных ситуаций, всегда доделывая свою работу до конца. Его очередным заданием становится проникновение в банду воров. Однако эти люди не обычные грабители: их главным отличием от остальных является увлечение экстремальными видами спорта. Свои умения они используют при каждом новом ограблении, и стать частью их команды очень непросто. Чтобы войти в банду и остановить преступников, Джонни придется доказать, что он такой же как они, а для этого ему не раз предстоит рискнуть собственной жизнью…



Видео: 1280x536p (2.40:1), 23.976 fps, AVC MPEG-4 (H.264), ~5364 kbps, 0.326 bit/pixel
Аудио #1: Русский: 48 kHz, AC3 Dolby Digital, 2 ch, ~192 kbps [Профессиональный (полное дублирование)]
Аудио #2: Английский: 48 kHz, DTS, 6 ch, ~1510 kbps [Оригинал]

Доп. информация: Ремейк одноименного фильма 1991 года.

General
Unique ID : 195077547769793508155503922408051247119 (0x92C291AEC0684FD58FC6A7F41E4D080F)
Название : G:\Na.grebne.2O15.D.BDRip.72OP.mkv
Формат : Matroska
Формат version : Version 2
Размер файла : 5.82 GiB
Длительность : 1h 53mn
Общий Битрейт : 7 319 Kbps
Encoded date : UTC 2016-03-11 23:32:55
Создано приложением : mkvmerge v8.3.0 ('Over the Horizon') 64bit
Writing library : libebml v1.3.1 + libmatroska v1.4.2
Длительность : 01:52:39.628000000

Video
ID : 2
Формат : AVC
Формат/Info : Advanced Video Кодек
Формат profile :
Формат настройки, CABAC : Yes
Формат настройки, ReFrames : 5 frames
Кодек ID : V_MPEG4/ISO/AVC
Длительность : 1h 53mn
Битрейт : 5 364 Kbps
Width : 1 280 пикселей
Высота : 536 пикселей
Соотношение кадра : 2.40:1
Частота кадров : 23.976 fps
Цветопередача : YUV
Chroma subsampling : 4:2:0
Разрядность : 8 bits
Тип сканирования : Progressive
Bits/(Pixel*Frame) : 0.326
Размер потока : 4.15 GiB (74%)
Writing library : x264 core 148 r2665 a01e339
Encoding настройки : cabac=1 / ref=5 / deblock=1:0:0 / analyse=0x3:0x113 / me=umh / subme=8 / psy=1 / psy_rd=1.00:0.00 / mixed_ref=1 / me_range=16 / chroma_me=1 / trellis=1 / 8x8dct=1 / cqm=0 / deadzone=21,11 / fast_pskip=0 / chroma_qp_offset=-2 / threads=17 / lookahead_threads=2 / sliced_threads=0 / nr=0 / decimate=1 / interlaced=0 / bluray_compat=0 / constrained_intra=0 / bframes=3 / b_pyramid=2 / b_adapt=2 / b_bias=0 / direct=3 / weightb=1 / open_gop=0 / weightp=2 / keyint=250 / keyint_min=23 / scenecut=40 / intra_refresh=0 / rc_lookahead=50 / rc=2pass / mbtree=1 / bitrate=5364 / ratetol=1.0 / qcomp=0.60 / qpmin=0 / qpmax=69 / qpstep=4 / cplxblur=20.0 / qblur=0.5 / ip_ratio=1.40 / aq=1:1.00
Язык : English
Default : Yes
Forced : No

Audio #1
ID : 2
Формат : AC-3
Формат/Info : Audio Coding 3
Расширение режима : CM (complete main)
Кодек ID : A_AC3
Длительность : 1h 53mn
Битрейт mode : Constant
Битрейт : 448 Kbps
Channel(s) : 6 каналов
Channel positions : Front: L C R, Side: L R, LFE
Частота : 48.0 KHz
Разрядность : 16 bits
Режим сжатия : Lossy
Размер потока : 365 MiB (4%)
Язык : Russian
Default : Yes
Forced : No

Audio #2
ID : 3
Формат : DTS
Формат/Info : Digital Theater Systems
Кодек ID : A_DTS
Длительность : 1h 53mn
Битрейт mode : Constant
Битрейт : 1 510 Kbps
Channel(s) : 6 каналов
Channel positions : Front: L C R, Side: L R, LFE
Частота : 48.0 KHz
Разрядность : 24 bits
Режим сжатия : Lossy
Размер потока : 1.20 GiB (21%)
Язык : English
Default : No
Forced : No

Text #1
ID : 4
Формат : UTF-8
Кодек ID : S_TEXT/UTF8
Кодек ID/Info : UTF-8 Plain Text
Title : English regular
Язык : English
Default : No
Forced : No

Text #2
ID : 5
Формат : UTF-8
Кодек ID : S_TEXT/UTF8
Кодек ID/Info : UTF-8 Plain Text
Title : English sdh
Язык : English
Default : No
Forced : No

Menu
00:00:00.000 : en:00:00:00.000
00:10:11.820 : en:00:10:11.820
00:21:05.139 : en:00:21:05.139
00:29:20.926 : en:00:29:20.926
00:42:44.896 : en:00:42:44.896
00:50:05.794 : en:00:50:05.794
01:03:19.462 : en:01:03:19.462
01:12:43.943 : en:01:12:43.943
01:20:40.419 : en:01:20:40.419
01:27:14.521 : en:01:27:14.521
01:32:44.350 : en:01:32:44.350
01:39:02.603 : en:01:39:02.603





_________________
Проголосуй за трекер Открытый торрент трекер - RUS-MEDIA.ORG

Проголосуй Открытый торрент трекер - RUS-MEDIA.ORG


Вернуться к началу
 Профиль Отправить личное сообщение  
 
   Похожие торренты   Автор   Торрент   Размер 
В этой теме нет новых непрочитанных сообщений. На гребне волны / Point Break [Боевик, триллер, криминал, спорт, 2015] BDRip , Dub+Sub [лицензия]

salma3

15 | 5

2.18 ГБ

В этой теме нет новых непрочитанных сообщений. На гребне волны / Point Break [боевик, триллер, криминал, спорт, 2015] BDRip 1080p, Dub+Sub [лицензия]

salma3

323 | 14

9.11 ГБ

В этой теме нет новых непрочитанных сообщений. На гребне волны / Point Break [боевик, триллер, криминал, спорт, 2015] HDRip, Dub [лицензия]

salma3

11335 | 580

1.46 ГБ

В этой теме нет новых непрочитанных сообщений. На гребне волны / Point Break [боевик, триллер, криминал, спорт, 2015] Blu-ray 3D-Video, Dub+Sub [Лицензия]

salma3

140 | 151

39.11 ГБ

В этой теме нет новых непрочитанных сообщений. На гребне волны / Point Break [боевик, триллер, криминал, спорт, 2015] HDRip, Dub [лицензия]

salma3

4376 | 163

2.19 ГБ

В этой теме нет новых непрочитанных сообщений. На гребне волны / Point Break [Боевик, триллер, криминал, спорт, 2015] HDRip, Dub [Лицензия]

salma3

14 | 5

748.72 МБ

В этой теме нет новых непрочитанных сообщений. На гребне волны / Point Break [боевик, триллер, криминал, спорт, 2015] DVD5, Dub [лицензия]

salma3

1 | 1

4.37 ГБ


Начать новую тему Ответить на тему  [ 1 сообщение ] 




Для Мосгорсуда, Роскомнадзора и рекламодателей:: mosgorsud-torrent[собачка]yandex.ru
cron