Торрент файл
скачать торрент магнет ссылка Добавлен: 20 мар 2016, 12:20
Размер: 7.27 ГБ
Сидеров: 110
Личеров: 23
Автор

СообщениеДобавлено: 20 мар 2016, 12:20 

Не в сети
Супермодератор
Аватара пользователя
Дата регистрации:
15 фев 2012, 16:44
Возраст: 29
Спасибо: 7421 / 2147
Сообщения: 79901
Год выхода: 2004
Жанр: ужасы, фантастика, триллер, драма
Режиссер: Эрни Барбараш / Ernie Barbarash
В ролях: Зэкэри Беннетт, Стефани Мур, Майкл Райли, Дэвид Хабэнд, Ричард МакМиллэн, Терри Хоукс

О фильме:
Приквел культового философско-фантастического фильма "Куб"! Изоляция. Паника. Ужас. Любой кошмар имеет начало. Молодой человек, в чьи обязанности входит приглядывать за Кубом - чудовищным изобретением человечества, замечает невинную женщину, попавшую в ловушку в одной из комнат куба и решает попытаться спасти ее, несмотря на смертельную опасность, поджидающую любого, кто окажется внутри...



Страна: Канада
Продолжительность: 1:37:31
Перевод: 1.Профессиональный (многоголосый, закадровый) R5 Лицензия
2.Профессиональный (многоголосый, закадровый)

Файл
Кодек: MPEG4 Video (H264)
Качество: BDRip 1080p | P
Видео: 1920x1080, 8178 Кбит/сек, 23.976fps
Звук:
Аудио #1: Русский (AC3, 6 ch, 384 Кбит/с) МVO R5
Аудио #2: Русский (AC3, 6 ch, 384 Кбит/с) MVO
Аудио #3: Английский (DTS, 6 ch, 1509 Кбит/с) Оригинал
Субтитры: Русские, английские
Общее
Уникальный идентификатор : 217969260541563605298908480502390946219 (0xA3FB5A42E615115C92F8AA9673E979AB)
Полное имя : D:FilmCube_Zero.2004.BDRip.1080p.mkv
Формат : Matroska
Версия формата : Version 2
Размер файла : 7,27 Гбайт
Продолжительность : 1 ч. 37 м.
Общий поток : 10,7 Мбит/сек
Дата кодирования : UTC 2016-03-19 16:24:22
Программа кодирования : mkvmerge v4.0.0 ('The Stars were mine') сборка от Jun 6 2010 16:18:42
Библиотека кодирования : libebml v1.0.0 + libmatroska v1.0.0
Видео
Идентификатор : 1
Формат : AVC
Формат/Информация : Advanced Video Codec
Профиль формата : High@L4.1
Параметр CABAC формата : Да
Параметр ReFrames формата : 4 кадра
Идентификатор кодека : V_MPEG4/ISO/AVC
Продолжительность : 1 ч. 37 м.
Битрейт : 8178 Кбит/сек
Ширина : 1920 пикселей
Высота : 1080 пикселей
Соотношение сторон : 16:9
Режим частоты кадров : Постоянный
Частота кадров : 23,976 кадра/сек
Цветовое пространство : YUV
Субдискретизация насыщенности : 4:2:0
Битовая глубина : 8 бит
Тип развёртки : Прогрессивная
Бит/(Пиксели*Кадры) : 0.164
Размер потока : 5,57 Гбайт (77%)
Библиотека кодирования : x264 core 130 r2273 b3065e6
Настройки программы : cabac=1 / ref=4 / deblock=1:0:0 / analyse=0x3:0x113 / me=umh / subme=7 / psy=1 / psy_rd=1.00:0.00 / mixed_ref=1 / me_range=16 / chroma_me=1 / trellis=1 / 8x8dct=1 / cqm=0 / deadzone=21,11 / fast_pskip=0 / chroma_qp_offset=-2 / threads=12 / lookahead_threads=2 / sliced_threads=0 / nr=0 / decimate=1 / interlaced=0 / bluray_compat=0 / constrained_intra=0 / bframes=3 / b_pyramid=2 / b_adapt=1 / b_bias=0 / direct=1 / weightb=1 / open_gop=0 / weightp=2 / keyint=250 / keyint_min=23 / scenecut=40 / intra_refresh=0 / rc_lookahead=40 / rc=crf / mbtree=1 / crf=20.0 / qcomp=0.60 / qpmin=0 / qpmax=69 / qpstep=4 / ip_ratio=1.40 / aq=1:1.00
Язык : German
Default : Нет
Forced : Нет
Аудио #1
Идентификатор : 2
Формат : AC-3
Формат/Информация : Audio Coding 3
Расширение режима : CM (complete main)
Параметр Endianness формата : Big
Идентификатор кодека : A_AC3
Продолжительность : 1 ч. 37 м.
Вид битрейта : Постоянный
Битрейт : 384 Кбит/сек
Каналы : 6 каналов
Расположение каналов : Front: L C R, Side: L R, LFE
Частота : 48,0 КГц
Частота кадров : 31,250 кадров/сек (1536 spf)
Метод сжатия : С потерями
Размер потока : 268 Мбайт (4%)
Заголовок : MVO
Язык : Russian
Default : Да
Forced : Да
Аудио #2
Идентификатор : 3
Формат : AC-3
Формат/Информация : Audio Coding 3
Расширение режима : CM (complete main)
Параметр Endianness формата : Big
Идентификатор кодека : A_AC3
Продолжительность : 1 ч. 37 м.
Вид битрейта : Постоянный
Битрейт : 384 Кбит/сек
Каналы : 6 каналов
Расположение каналов : Front: L C R, Side: L R, LFE
Частота : 48,0 КГц
Частота кадров : 31,250 кадров/сек (1536 spf)
Метод сжатия : С потерями
Размер потока : 268 Мбайт (4%)
Заголовок : MVO
Язык : Russian
Default : Нет
Forced : Нет
Аудио #3
Идентификатор : 4
Формат : DTS
Формат/Информация : Digital Theater Systems
Режим : 16
Параметр Endianness формата : Big
Идентификатор кодека : A_DTS
Продолжительность : 1 ч. 37 м.
Вид битрейта : Постоянный
Битрейт : 1509 Кбит/сек
Каналы : 6 каналов
Расположение каналов : Front: L C R, Side: L R, LFE
Частота : 48,0 КГц
Частота кадров : 93,750 кадра/сек (512 spf)
Битовая глубина : 16 бит
Метод сжатия : С потерями
Размер потока : 1,03 Гбайт (14%)
Заголовок : English
Язык : English
Default : Нет
Forced : Нет
Текст #1
Идентификатор : 5
Формат : UTF-8
Идентификатор кодека : S_TEXT/UTF8
Идентификатор кодека/Информация : UTF-8 Plain Text
Заголовок : Full
Язык : Russian
Default : Нет
Forced : Нет
Текст #2
Идентификатор : 6
Формат : UTF-8
Идентификатор кодека : S_TEXT/UTF8
Идентификатор кодека/Информация : UTF-8 Plain Text
Заголовок : Full
Язык : English
Default : Нет
Forced : Нет
Меню
00:00:00.000 : en:Chapter 1
00:05:16.153 : en:Chapter 2
00:13:15.521 : en:Chapter 3
00:19:52.832 : en:Chapter 4
00:31:51.428 : en:Chapter 5
00:42:00.969 : en:Chapter 6
00:50:35.723 : en:Chapter 7
00:57:03.043 : en:Chapter 8
01:11:31.306 : en:Chapter 9
01:20:30.306 : en:Chapter 10
01:27:47.306 : en:Chapter 11
01:33:13.306 : en:Chapter 12



_________________
Проголосуй за трекер Открытый торрент трекер - RUS-MEDIA.ORG

Проголосуй Открытый торрент трекер - RUS-MEDIA.ORG


Вернуться к началу
 Профиль Отправить личное сообщение  
 
   Похожие торренты   Автор   Торрент   Размер 
В этой теме нет новых непрочитанных сообщений. Куб Зеро / Cube Zero [ужасы, фантастика, триллер, 2004] BDRemux 1080p, Mvo

salma3

0 | 0

15.48 ГБ

В этой теме нет новых непрочитанных сообщений. Куб 2: Гиперкуб / Cube 2: Hypercube [ужасы, фантастика, триллер, драма, 2002] BDRip 1080p, Mvo+Sub

salma3

78 | 30

8.57 ГБ

В этой теме нет новых непрочитанных сообщений. Куб Зеро / Cube Zero [ужасы, фантастика, триллер, 2004] HDRip-AVC, Mvo

salma3

91 | 24

744.54 МБ

В этой теме нет новых непрочитанных сообщений. Куб 2: Гиперкуб / Cube 2: Hypercube [триллер, ужасы, фантастика, детектив, 2002] BDRip, Dvo

salma3

106 | 38

1.46 ГБ

В этой теме нет новых непрочитанных сообщений. Куб 2: Гиперкуб / Cube 2: Hypercube [фантастика, триллер, 2002] BDRip-AVC, Dvo

salma3

78 | 21

745.36 МБ

В этой теме нет новых непрочитанных сообщений. Куб 2: Гиперкуб / Cube 2: Hypercube [триллер, научная фантастика, 2002] BDRip 720p, Dvo

salma3

41 | 30

3.47 ГБ

В этой теме нет новых непрочитанных сообщений. Куб 2: Гиперкуб / Cube 2: Hypercube [триллер, научная фантастика, 2002] BDRip 720p, Dvo

salma3

84 | 77

4.7 ГБ


Начать новую тему Ответить на тему  [ 1 сообщение ] 




Для Мосгорсуда, Роскомнадзора и рекламодателей:: mosgorsud-torrent[собачка]yandex.ru
cron