Торрент файл
скачать торрент магнет ссылка Добавлен: 21 мар 2016, 21:31
Размер: 8.01 ГБ
Сидеров: 97
Личеров: 38
Автор

СообщениеДобавлено: 21 мар 2016, 21:31 

Не в сети
Супермодератор
Аватара пользователя
Дата регистрации:
15 фев 2012, 16:44
Возраст: 29
Спасибо: 7428 / 2147
Сообщения: 80115
Год выхода: 2010
Страна: США
Студия: Warner Premiere, Cartoon Network, Atlas Entertainment
Продолжительность: 01:22:11
Жанр: фэнтези, комедия, детектив, приключения
Режиссер: Брайан Левант
В ролях: Робби Амелл, Хейли Кийоко, Кейтлин Мелтон, Ник Палатас, Фрэнк Уэлкер, Тед МакГинли, Ричард Молл, Нишелль Николс, Мэрион Росс, Беверли Сандерс, ...
Перевод: Любительский (двухголосый, закадровый) RelizLab
О фильме: Скуби-Ду и его приятели вернулись к легендарным проклятиям! На этот раз жуткий монстр озера атакует Эри Пойнт, но Шегги, Скуби, Велма, Фред и Дафна готовы разоблачить все тайны…



Кодек: x264
Качество: BDRip 1080p
Видео: 1920x1080 , 12000 kbps, 23,976 fps
Аудио #1: AC-3, 6 ch, 448 kbps (Rus) - DVOL RelizLab
Аудио #2: DTS, 6 ch, 1509 kbps (Eng)
Субтитры: Английские

За исходник спасибо - UkrainePatriot
x264 [info]: frame I:940 Avg QP:16.62 size:188940
x264 [info]: frame P:33002 Avg QP:19.01 size:103983
x264 [info]: frame B:84301 Avg QP:20.82 size: 44893
x264 [info]: consecutive B-frames: 2.2% 9.1% 3.3% 78.7% 3.3% 1.5% 0.9% 0.7% 0.1% 0.1% 0.2%
Общее
Уникальный идентификатор : 240432248145627912891056561016505789824 (0xB4E1910EA9EA0C9CAB6DAD714F026D80)
Полное имя : Скуби-Ду 4 Проклятье озерного монстра (Scooby-Doo! Curse of the...) 2010 BDRip 1080p.mkv
Формат : Matroska
Версия формата : Version 2
Размер файла : 8,01 Гбайт
Продолжительность : 1 ч. 22 м.
Общий поток : 14,0 Мбит/сек
Дата кодирования : UTC 2016-03-20 18:24:27
Программа кодирования : mkvmerge v4.0.0 ('The Stars were mine') сборка от Jun 6 2010 16:18:42
Библиотека кодирования : libebml v1.0.0 + libmatroska v1.0.0
Видео
Идентификатор : 1
Формат : AVC
Формат/Информация : Advanced Video Codec
Профиль формата : High@L4.1
Параметр CABAC формата : Да
Параметр ReFrames формата : 4 кадра
Идентификатор кодека : V_MPEG4/ISO/AVC
Продолжительность : 1 ч. 22 м.
Битрейт : 12,0 Мбит/сек
Ширина : 1920 пикселей
Высота : 1080 пикселей
Соотношение сторон : 16:9
Режим частоты кадров : Постоянный
Частота кадров : 23,976 кадра/сек
Цветовое пространство : YUV
Субдискретизация насыщенности : 4:2:0
Битовая глубина : 8 бит
Тип развёртки : Прогрессивная
Бит/(Пиксели*Кадры) : 0.241
Размер потока : 6,73 Гбайт (84%)
Библиотека кодирования : x264 core 146 r2538 121396c
Настройки программы : cabac=1 / ref=4 / deblock=1:-3:-3 / analyse=0x3:0x133 / me=umh / subme=11 / psy=1 / psy_rd=1.00:0.00 / mixed_ref=1 / me_range=32 / chroma_me=1 / trellis=2 / 8x8dct=1 / cqm=0 / deadzone=21,11 / fast_pskip=0 / chroma_qp_offset=-2 / threads=12 / lookahead_threads=2 / sliced_threads=0 / nr=0 / decimate=0 / interlaced=0 / bluray_compat=0 / constrained_intra=0 / bframes=10 / b_pyramid=2 / b_adapt=2 / b_bias=0 / direct=3 / weightb=1 / open_gop=0 / weightp=2 / keyint=240 / keyint_min=23 / scenecut=40 / intra_refresh=0 / rc=2pass / mbtree=0 / bitrate=12000 / ratetol=1.0 / qcomp=0.60 / qpmin=0 / qpmax=69 / qpstep=4 / cplxblur=20.0 / qblur=0.5 / ip_ratio=1.40 / pb_ratio=1.30 / aq=1:0.80
Язык : English
Default : Нет
Forced : Нет
Аудио #1
Идентификатор : 2
Формат : AC-3
Формат/Информация : Audio Coding 3
Расширение режима : CM (complete main)
Параметр Endianness формата : Big
Идентификатор кодека : A_AC3
Продолжительность : 1 ч. 22 м.
Вид битрейта : Постоянный
Битрейт : 448 Кбит/сек
Каналы : 6 каналов
Расположение каналов : Front: L C R, Side: L R, LFE
Частота : 48,0 КГц
Метод сжатия : С потерями
Размер потока : 263 Мбайт (3%)
Заголовок : DVOL RelizLab
Язык : Russian
Default : Нет
Forced : Нет
Аудио #2
Идентификатор : 3
Формат : DTS
Формат/Информация : Digital Theater Systems
Режим : 16
Параметр Endianness формата : Big
Идентификатор кодека : A_DTS
Продолжительность : 1 ч. 22 м.
Вид битрейта : Постоянный
Битрейт : 1509 Кбит/сек
Каналы : 6 каналов
Расположение каналов : Front: L C R, Side: L R, LFE
Частота : 48,0 КГц
Битовая глубина : 24 бит
Метод сжатия : С потерями
Размер потока : 887 Мбайт (11%)
Язык : English
Default : Нет
Forced : Нет
Текст
Идентификатор : 4
Формат : UTF-8
Идентификатор кодека : S_TEXT/UTF8
Идентификатор кодека/Информация : UTF-8 Plain Text
Язык : English
Default : Нет
Forced : Нет



_________________
Проголосуй за трекер Открытый торрент трекер - RUS-MEDIA.ORG

Проголосуй Открытый торрент трекер - RUS-MEDIA.ORG


Вернуться к началу
 Профиль Отправить личное сообщение  
 
   Похожие торренты   Автор   Торрент   Размер 
В этой теме нет новых непрочитанных сообщений. Скуби-Ду 3: Тайна начинается / Scooby-Doo! The Mystery Begins [фэнтези, комедия, детектив, 2009] BDRip 1080p, Mvo+Sub

salma3

104 | 39

7.53 ГБ

В этой теме нет новых непрочитанных сообщений. Скуби-Ду и Призрак-гурман / Scooby-Doo! and the Gourmet Ghost [мультфильм, фэнтези, криминал, 2018] WEB-DLRip 1080p, Mvo [Flarrow Films]

salma3

0 | 0

2.93 ГБ

В этой теме нет новых непрочитанных сообщений. Скуби-ду! На диком западе / Scooby-Doo! Shaggy's Showdown [Мультфильм, комедия, детектив, 2017] WEB-DLRip, Mvo

salma3

207 | 36

1.37 ГБ

В этой теме нет новых непрочитанных сообщений. Гoлос монстра / А Mоnstеr Cаlls [фэнтези, драма, 2016] BDRip 1080p, Dub+Sub

salma3

81 | 20

7.4 ГБ

В этой теме нет новых непрочитанных сообщений. Тутанхамон: Проклятие гробницы / The Curse of King Tut's Tomb [ужасы, фэнтези, приключения, 2006] BDRip, Mvo

salma3

99 | 53

2.91 ГБ

В этой теме нет новых непрочитанных сообщений. Проклятие Спящей красавицы / The Curse of Sleeping Beauty [фэнтези, триллер, детектив, 2016] WEB-DL 1080p, Dub [Чистый Звук]

salma3

181 | 19

3.06 ГБ

В этой теме нет новых непрочитанных сообщений. Гoлос монстра / A Mоnster Calls [фэнтези, драма, 2016] BDRip-AVC, Dub+Sub [iTunes]

salma3

918 | 155

2.13 ГБ


Начать новую тему Ответить на тему  [ 1 сообщение ] 




Для Мосгорсуда, Роскомнадзора и рекламодателей:: mosgorsud-torrent[собачка]yandex.ru
cron