Торрент файл
скачать торрент магнет ссылка Добавлен: 19 апр 2016, 11:33
Размер: 3.6 ГБ
Сидеров: 9
Личеров: 4
Статус: (salma3)
Автор

СообщениеДобавлено: 19 апр 2016, 11:33 

Не в сети
Супермодератор
Аватара пользователя
Дата регистрации:
15 фев 2012, 16:44
Возраст: 29
Спасибо: 7422 / 2147
Сообщения: 79973
Год выхода: 1984
Жанр: ужасы, триллер, слэшер
Режиссер: Чарльз Е. Селлер мл.

В ролях: Лилиан Шовен — мать-настоятельница, Гилмер МакКормик — сестра Маргарет, Роберт Брайан Уиллсон — Билли Чэпмен в 18 лет, Тони Неро — Памела, Линни Куигли — Дениз, Бритт Лич — мистер Симс, Нэнси Боргенект

О фильме:
Жила-была одна семья, в которую входили — муж, жена и пара их маленьких сыновей. И вот, в канун рождества, решили они проведать своего деда. Так получилось, что один из детишек, тот что постарше, остался наедине со стариком. А дед, до этого не произнесший ни слова вдруг стал ему рассказывать всякие страшные вещи про Санта-Клаусов… На такого Санту и напарывается возвращающаяся от деда семья. В результате этой встречи в живых остаются только двое детей. Но это только начало истории…



Страна: США
Продолжительность: 01:24:54
Перевод: Авторский одноголосый, Оригинал

Файл
Кодек: x264
Качество: BDRip 720p
Видео: 1280x686 (1,85:1), 23.976 fps, 5310 kbps
Звук:
Аудио #1: AC3, 192 Kbps, 48.0 KHz, 2 ch (Rus) Авторский одноголосый, С.Визгунов
Аудио #2: AC3, 448 Kbps, 48.0 KHz, 6 ch (Eng) Оригинал
Субтитры: Английские


Формат : Matroska
Версия формата : Version 2
Размер файла : 3,60 Гбайт
Продолжительность : 1 ч. 24 м.
Общий поток : 6071 Кбит/сек
Дата кодирования : UTC 2016-04-18 11:34:40
Программа кодирования : mkvmerge v5.4.0 ('Piper') built on Mar 10 2012 13:34:39
Библиотека кодирования : libebml v1.2.3 + libmatroska v1.3.0
Видео
Идентификатор : 1
Формат : AVC
Формат/Информация : Advanced Video Codec
Профиль формата : High@L4.1
Параметр CABAC формата : Да
Параметр ReFrames формата : 9 кадров
Идентификатор кодека : V_MPEG4/ISO/AVC
Продолжительность : 1 ч. 24 м.
Битрейт : 5310 Кбит/сек
Ширина : 1280 пикселей
Высота : 686 пикселей
Соотношение сторон : 1,85:1
Режим частоты кадров : Постоянный
Частота кадров : 23,976 кадра/сек
Цветовое пространство : YUV
Субдискретизация насыщенности : 4:2:0
Битовая глубина : 8 бит
Тип развёртки : Прогрессивная
Бит/(Пиксели*Кадры) : 0.252
Размер потока : 3,15 Гбайт (87%)
Заголовок : Silent Night, Deadly Night / Тихая ночь, смертельная ночь (1984)
Библиотека кодирования : x264 core 146 r2538 121396c
Настройки программы : cabac=1 / ref=9 / deblock=1:-3:-3 / analyse=0x3:0x113 / me=umh / subme=10 / psy=1 / psy_rd=1.00:0.15 / mixed_ref=1 / me_range=32 / chroma_me=1 / trellis=2 / 8x8dct=1 / cqm=0 / deadzone=21,11 / fast_pskip=1 / chroma_qp_offset=-3 / threads=6 / lookahead_threads=1 / sliced_threads=0 / nr=0 / decimate=1 / interlaced=0 / bluray_compat=0 / constrained_intra=0 / bframes=7 / b_pyramid=2 / b_adapt=2 / b_bias=0 / direct=1 / weightb=1 / open_gop=0 / weightp=2 / keyint=230 / keyint_min=23 / scenecut=40 / intra_refresh=0 / rc_lookahead=40 / rc=crf / mbtree=0 / crf=18.5 / qcomp=0.60 / qpmin=0 / qpmax=69 / qpstep=4 / vbv_maxrate=40000 / vbv_bufsize=50000 / crf_max=0.0 / nal_hrd=none / filler=0 / ip_ratio=1.40 / pb_ratio=1.30 / aq=1:1.00
Язык : English
Default : Да
Forced : Нет
Аудио #1
Идентификатор : 2
Формат : AC-3
Формат/Информация : Audio Coding 3
Расширение режима : CM (complete main)
Параметр Endianness формата : Big
Идентификатор кодека : A_AC3
Продолжительность : 1 ч. 24 м.
Вид битрейта : Постоянный
Битрейт : 192 Кбит/сек
Каналы : 2 канала
Расположение каналов : Front: L R
Частота : 48,0 КГц
Битовая глубина : 16 бит
Метод сжатия : С потерями
Размер потока : 117 Мбайт (3%)
Заголовок : AVO (С.Визгунов)
Язык : Russian
Default : Да
Forced : Нет
Аудио #2
Идентификатор : 3
Формат : AC-3
Формат/Информация : Audio Coding 3
Расширение режима : CM (complete main)
Параметр Endianness формата : Big
Идентификатор кодека : A_AC3
Продолжительность : 1 ч. 24 м.
Вид битрейта : Постоянный
Битрейт : 448 Кбит/сек
Каналы : 6 каналов
Расположение каналов : Front: L C R, Side: L R, LFE
Частота : 48,0 КГц
Битовая глубина : 16 бит
Метод сжатия : С потерями
Размер потока : 272 Мбайт (7%)
Заголовок : Original (English)
Язык : English
Default : Нет
Forced : Нет
Текст
Идентификатор : 4
Формат : UTF-8
Идентификатор кодека : S_TEXT/UTF8
Идентификатор кодека/Информация : UTF-8 Plain Text
Заголовок : Eng
Язык : English
Default : Нет
Forced : Нет

Релиз от: msltel


_________________
Проголосуй за трекер Открытый торрент трекер - RUS-MEDIA.ORG

Проголосуй Открытый торрент трекер - RUS-MEDIA.ORG


Вернуться к началу
 Профиль Отправить личное сообщение  
 
   Похожие торренты   Автор   Торрент   Размер 
В этой теме нет новых непрочитанных сообщений. Тихая ночь, смертельная ночь / Silent Night, Deadly Night [ужасы, слэшер, 1984] BDRemux 1080p, Avo

salma3

0 | 0

17.58 ГБ

В этой теме нет новых непрочитанных сообщений. Инициация: Тихая ночь, смертельная ночь 4 / Initiation: Silent Night, Deadly Night 4 [ужасы, триллер, 1990] DVDRip, Avo

salma3

127 | 304

1.37 ГБ

В этой теме нет новых непрочитанных сообщений. Инициация: Тихая ночь, смертельная ночь 4 / Initiation: Silent Night, Deadly Night 4 [ужасы, 1990] WEB-DL 1080p, Avo

salma3

0 | 0

4.67 ГБ

В этой теме нет новых непрочитанных сообщений. Тихая ночь, смертельная ночь 3: Лучше поберегись! / Silent Night, Deadly Night 3: Better Watch Out! [ужасы, 1989] WEB-DL 1080p, Avo

salma3

0 | 0

7.93 ГБ

В этой теме нет новых непрочитанных сообщений. Тихая ночь, смертельная ночь 5: Создатель игрушек / Silent Night, Deadly Night 5: The Toy Maker [ужасы, фантастика, 1991] WEB-DL 1080p, Avo

salma3

0 | 0

5.07 ГБ

В этой теме нет новых непрочитанных сообщений. Неудачная ночь / Ночь накануне Хэллоуина / Mischief Night / The Night Before Halloween [ужасы, триллер, драма, 2013] BDRip 1080p, Avo

salma3

0 | 0

5.61 ГБ

В этой теме нет новых непрочитанных сообщений. Ночь кометы / Night of the Comet [фантастика, комедия, ужасы, 1984] BDRip 720p, Dvo

salma3

19 | 0

3.34 ГБ


Начать новую тему Ответить на тему  [ 1 сообщение ] 




Для Мосгорсуда, Роскомнадзора и рекламодателей:: mosgorsud-torrent[собачка]yandex.ru
cron