Торрент файл
скачать торрент магнет ссылка Добавлен: 19 апр 2016, 12:01
Размер: 4.98 ГБ
Сидеров: 67
Личеров: 38
Автор

СообщениеДобавлено: 19 апр 2016, 12:01 

Не в сети
Супермодератор
Аватара пользователя
Дата регистрации:
15 фев 2012, 16:44
Возраст: 29
Спасибо: 7434 / 2147
Сообщения: 80287
Год выхода: 1986
Страна: США
Студия: TriStar Pictures, Delphi V Productions
Продолжительность: 01:53:13
Жанр: драма, мелодрама, комедия
Режиссер: Эдвард Цвик

В ролях: Роб Лоу, Деми Мур, Джеймс Белуши, Элизабет Перкинс, Джордж ДиЧенцо, Майкл Олдредж, Робин Томас, Донна Гиббонс, Меган Маллалли, Патриция Дафф, ...

Перевод:
Профессиональный (дублированный) Варус Видео
Профессиональный (многоголосный, закадровый) Первый канал
Профессиональный (двуголосый, закадровый)
Авторский (одноголосый, закадровый) Володарский Леонид Вениаминович

О фильме: Дэнни наслаждается молодостью, привольной жизнью и случайными связями. Он не верит в настоящее чувство и нис кем не остается дольше одной ночи. Встреча с Дебби была похожа на тысячи других — с одним исключением: на следующий день Дэнни захотел увидеть девушку снова, а вскоре предложил ей жить вместе. Но современный Казанова не был создан для долгих и прочных отношений. И тогда он оставил Дебби, не подозревая, что совершает роковую ошибку…



Кодек: x264
Качество: BDRip 720p
Видео: 1280x688 , 4882 kbps, 23,976 fps
Аудио #1: AC-3, 2 ch, 192 kbps (Rus) - Dub Варус Видео
Аудио #2: AC-3, 2 ch, 192 kbps (Rus) - MVO Первый канал
Аудио #3: AC-3, 2 ch, 192 kbps (Rus) - DVO
Аудио #4: AC-3, 2 ch, 192 kbps (Rus) - AVO Володарский Леонид Вениаминович
Аудио #5: AC-3, 6 ch, 640 kbps (Eng)
Субтитры: Английские
Сравниваем DVD на предмет наполнения кадра с BD:


Общее
Уникальный идентификатор : 212480154689646657240558238513542442488 (0x9FDA3072B837FF76A88552B0E003ADF8)
Полное имя : Что случилось прошлой ночью (About Last Night...) 1986 BDRip 720p.mkv
Формат : Matroska
Версия формата : Version 2
Размер файла : 4,98 Гбайт
Продолжительность : 1 ч. 53 м.
Общий поток : 6292 Кбит/сек
Дата кодирования : UTC 2016-04-17 11:02:55
Программа кодирования : mkvmerge v4.0.0 ('The Stars were mine') сборка от Jun 6 2010 16:18:42
Библиотека кодирования : libebml v1.0.0 + libmatroska v1.0.0
Видео
Идентификатор : 1
Формат : AVC
Формат/Информация : Advanced Video Codec
Профиль формата : High@L4.1
Параметр CABAC формата : Да
Параметр ReFrames формата : 5 кадров
Идентификатор кодека : V_MPEG4/ISO/AVC
Продолжительность : 1 ч. 53 м.
Битрейт : 4882 Кбит/сек
Ширина : 1280 пикселей
Высота : 688 пикселей
Соотношение сторон : 1,85:1
Режим частоты кадров : Постоянный
Частота кадров : 23,976 кадра/сек
Цветовое пространство : YUV
Субдискретизация насыщенности : 4:2:0
Битовая глубина : 8 бит
Тип развёртки : Прогрессивная
Бит/(Пиксели*Кадры) : 0.231
Размер потока : 3,76 Гбайт (76%)
Библиотека кодирования : x264 core 67 r1160M 79377d7
Настройки программы : cabac=1 / ref=5 / deblock=1:0:0 / analyse=0x3:0x133 / me=umh / subme=7 / psy_rd=1.0:0.0 / mixed_ref=1 / me_range=16 / chroma_me=1 / trellis=1 / 8x8dct=1 / cqm=0 / deadzone=21,11 / chroma_qp_offset=-2 / threads=6 / nr=0 / decimate=1 / mbaff=0 / bframes=3 / b_pyramid=1 / b_adapt=1 / b_bias=0 / direct=1 / wpredb=1 / keyint=250 / keyint_min=25 / scenecut=40 / rc=2pass / bitrate=4882 / ratetol=1.0 / qcomp=0.60 / qpmin=10 / qpmax=51 / qpstep=4 / cplxblur=20.0 / qblur=0.5 / ip_ratio=1.40 / pb_ratio=1.30 / aq=1:1.00
Язык : English
Default : Нет
Forced : Нет
Аудио #1
Идентификатор : 2
Формат : AC-3
Формат/Информация : Audio Coding 3
Расширение режима : CM (complete main)
Параметр Endianness формата : Big
Идентификатор кодека : A_AC3
Продолжительность : 1 ч. 53 м.
Вид битрейта : Постоянный
Битрейт : 192 Кбит/сек
Каналы : 2 канала
Расположение каналов : Front: L R
Частота : 48,0 КГц
Метод сжатия : С потерями
Размер потока : 155 Мбайт (3%)
Заголовок : Dub Варус Видео
Язык : Russian
Default : Нет
Forced : Нет
Аудио #2
Идентификатор : 3
Формат : AC-3
Формат/Информация : Audio Coding 3
Расширение режима : CM (complete main)
Параметр Endianness формата : Big
Идентификатор кодека : A_AC3
Продолжительность : 1 ч. 53 м.
Вид битрейта : Постоянный
Битрейт : 192 Кбит/сек
Каналы : 2 канала
Расположение каналов : Front: L R
Частота : 48,0 КГц
Метод сжатия : С потерями
Размер потока : 155 Мбайт (3%)
Заголовок : MVO Первый канал
Язык : Russian
Default : Нет
Forced : Нет
Аудио #3
Идентификатор : 4
Формат : AC-3
Формат/Информация : Audio Coding 3
Расширение режима : CM (complete main)
Параметр Endianness формата : Big
Идентификатор кодека : A_AC3
Продолжительность : 1 ч. 53 м.
Вид битрейта : Постоянный
Битрейт : 192 Кбит/сек
Каналы : 2 канала
Расположение каналов : Front: L R
Частота : 48,0 КГц
Метод сжатия : С потерями
Размер потока : 155 Мбайт (3%)
Заголовок : DVO
Язык : Russian
Default : Нет
Forced : Нет
Аудио #4
Идентификатор : 5
Формат : AC-3
Формат/Информация : Audio Coding 3
Расширение режима : CM (complete main)
Параметр Endianness формата : Big
Идентификатор кодека : A_AC3
Продолжительность : 1 ч. 53 м.
Вид битрейта : Постоянный
Битрейт : 192 Кбит/сек
Каналы : 2 канала
Расположение каналов : Front: L R
Частота : 48,0 КГц
Метод сжатия : С потерями
Размер потока : 155 Мбайт (3%)
Заголовок : AVO Володарский Леонид Вениаминович
Язык : Russian
Default : Нет
Forced : Нет
Аудио #5
Идентификатор : 6
Формат : AC-3
Формат/Информация : Audio Coding 3
Расширение режима : CM (complete main)
Параметр Endianness формата : Big
Идентификатор кодека : A_AC3
Продолжительность : 1 ч. 53 м.
Вид битрейта : Постоянный
Битрейт : 640 Кбит/сек
Каналы : 6 каналов
Расположение каналов : Front: L C R, Side: L R, LFE
Частота : 48,0 КГц
Метод сжатия : С потерями
Размер потока : 518 Мбайт (10%)
Язык : English
Default : Нет
Forced : Нет
Текст
Идентификатор : 7
Формат : UTF-8
Идентификатор кодека : S_TEXT/UTF8
Идентификатор кодека/Информация : UTF-8 Plain Text
Язык : English
Default : Нет
Forced : Нет



_________________
Проголосуй за трекер Открытый торрент трекер - RUS-MEDIA.ORG

Проголосуй Открытый торрент трекер - RUS-MEDIA.ORG


Вернуться к началу
 Профиль Отправить личное сообщение  
 
   Похожие торренты   Автор   Торрент   Размер 
В этой теме нет новых непрочитанных сообщений. What Happened Last Night / Что Случилось Прошлой Ночью (Pretty Dirty) [2017 г., Feature, Oral, Affairs, Love Triangles, All Sex, Cunnilingus, HDRip, 1080p]

max77777

0 | 1

4.79 ГБ

В этой теме нет новых непрочитанных сообщений. Однажды тёмной ночью / One Dark Night [ужасы, 1982] BDRip 720p, Avo

salma3

0 | 0

5.59 ГБ

В этой теме нет новых непрочитанных сообщений. Оно приходит ночью / It Comes at Night [ужасы, детектив, 2017] BDRip 720p, Dub [iTunes]

salma3

1299 | 226

4.62 ГБ

В этой теме нет новых непрочитанных сообщений. Что случилось тогда... / Как это было... / What Happened Was... [драма, мелодрама, комедия, 1994] SATRipp, Dvo

salma3

0 | 0

1.21 ГБ

В этой теме нет новых непрочитанных сообщений. Оно приходит ночью / It Comes at Night [Ужасы, детектив, 2017] BDRip, Dub [Лицензия]

salma3

59 | 19

744.82 МБ

В этой теме нет новых непрочитанных сообщений. Оно приходит ночью / It Comes at Night [Ужасы, детектив, 2017] BDRip, Dub [Лицензия]

salma3

358 | 76

1.46 ГБ

В этой теме нет новых непрочитанных сообщений. Оно приходит ночью / It Comes at Night [ужасы, детектив, 2017] BDRip 1080p, Dub [iTunes]

salma3

909 | 154

7.9 ГБ


Начать новую тему Ответить на тему  [ 1 сообщение ] 




Для Мосгорсуда, Роскомнадзора и рекламодателей:: mosgorsud-torrent[собачка]yandex.ru
cron