Торрент файл
скачать торрент магнет ссылка Добавлен: 04 май 2016, 22:18
Размер: 8.47 ГБ
Сидеров: 23
Личеров: 39
Автор

СообщениеДобавлено: 04 май 2016, 22:18 

Не в сети
Супермодератор
Аватара пользователя
Дата регистрации:
15 фев 2012, 16:44
Возраст: 29
Спасибо: 7426 / 2147
Сообщения: 80047
Год выхода: 1987
Жанр: триллер, драма, криминал, детектив
Режиссер: Фред Уолтон

В ролях: Дональд Сазерленд, Чарльз Дёрнинг, Роджер Анджелини, Анита Бэрон, Б. Констанс Бэрри, Белинда Бауэр, Дорис Биско, Сэнди Броад, Кит Брукс, Бетани Карпентер

Сюжет фильма:
В Детройте совершена серия жестоких убийств. Жертвами стали католические священники и монахини, в руках которых убийца оставляет черные чётки. А после в церкви исповедуется человек, который признаётся в убийствах, но священник Боб Кеслер, соблюдая тайну исповеди, не может сообщить об этом в полицию...



Страна: США
Продолжительность: 01:45:09
Перевод: Профессиональный (двухголосый, закадровый) | TB-6, авторский (одноголосый, закадровый) | Н. Севастьянов

Файл
Формат: MKV
Качество: BDRip 720p
Видео: 1280x694 at 23.976 fps, x264 High@L4.1, ~9 631 kbps avg
Аудио#1: Russian: 48 kHz, AC3, 2/0 (L,R) ch, ~192 kbps avg | Двухголосый закадровый, TB-6|
Аудио#2: Russian: 48 kHz, AC3, 2/0 (L,R) ch, ~192 kbps avg | Одноголосый закадровый, Н. Севастьянов|
Аудио#3: English: 48 kHz/16-bit, DTS, 2/0 (L,R) ch, ~1536 kbps avg
Субтитры: English (SDH)

Общее
Уникальный идентификатор : 237620916459954698707733711334109584032 (0xB2C41FB420F524E3BCD6AD2D68B39AA0)
Полное имя : The.Rosary.Murders.1987.720p.BluRay.2xRus.Eng.HDCLUB.mkv
Формат : Matroska
Версия формата : Version 2
Размер файла : 8,47 Гбайт
Продолжительность : 1 ч. 45 м.
Общий поток : 11,5 Мбит/сек
Название фильма : The Rosary Murders (1987) - Release for HDCLUB
Дата кодирования : UTC 2016-05-03 12:16:11
Программа кодирования : mkvmerge v5.7.0 ('The Whirlwind') built on Jul 8 2012 20:08:51
Библиотека кодирования : libebml v1.2.3 + libmatroska v1.3.0
Видео
Идентификатор : 1
Формат : AVC
Формат/Информация : Advanced Video Codec
Профиль формата : High@L4.1
Параметр CABAC формата : Да
Параметр ReFrames формата : 9 кадров
Идентификатор кодека : V_MPEG4/ISO/AVC
Продолжительность : 1 ч. 45 м.
Битрейт : 9404 Кбит/сек
Ширина : 1280 пикселей
Высота : 694 пикселя
Соотношение сторон : 1,85:1
Режим частоты кадров : Постоянный
Частота кадров : 23,976 (24000/1001) кадра/сек
Цветовое пространство : YUV
Субдискретизация насыщенности : 4:2:0
Битовая глубина : 8 бит
Тип развёртки : Прогрессивная
Бит/(Пиксели*Кадры) : 0.442
Размер потока : 6,91 Гбайт (82%)
Библиотека кодирования : x264 core 148 r2665kMod a01e339
Настройки программы : cabac=1 / ref=9 / deblock=1:-3:-3 / analyse=0x3:0x133 / me=umh / subme=10 / psy=1 / fade_compensate=0.00 / psy_rd=1.00:0.00 / mixed_ref=1 / me_range=24 / chroma_me=1 / trellis=2 / 8x8dct=1 / cqm=0 / deadzone=21,11 / fast_pskip=0 / chroma_qp_offset=-2 / threads=12 / lookahead_threads=3 / sliced_threads=0 / nr=0 / decimate=0 / interlaced=0 / bluray_compat=0 / constrained_intra=0 / fgo=0 / bframes=10 / b_pyramid=2 / b_adapt=2 / b_bias=0 / direct=3 / weightb=1 / open_gop=0 / weightp=2 / keyint=250 / keyint_min=23 / scenecut=40 / intra_refresh=0 / rc_lookahead=60 / rc=crf / mbtree=0 / crf=19.0000 / qcomp=0.60 / qpmin=0 / qpmax=69 / qpstep=4 / vbv_maxrate=62500 / vbv_bufsize=78125 / crf_max=0.0 / nal_hrd=none / filler=0 / ip_ratio=1.30 / pb_ratio=1.20 / aq=3:0.70
Язык : English
Default : Да
Forced : Нет
Цветовой диапазон : Limited
Коэффициенты матрицы : BT.709
Аудио #1
Идентификатор : 2
Формат : AC-3
Формат/Информация : Audio Coding 3
Расширение режима : CM (complete main)
Параметр Endianness формата : Big
Идентификатор кодека : A_AC3
Продолжительность : 1 ч. 45 м.
Вид битрейта : Постоянный
Битрейт : 192 Кбит/сек
Каналы : 2 канала
Расположение каналов : Front: L R
Частота : 48,0 КГц
Частота кадров : 31,250 кадров/сек (1536 spf)
Метод сжатия : С потерями
Размер потока : 144 Мбайт (2%)
Заголовок : |Двухголосый закадровый, TB-6|
Язык : Russian
Default : Да
Forced : Нет
Аудио #2
Идентификатор : 3
Формат : AC-3
Формат/Информация : Audio Coding 3
Расширение режима : CM (complete main)
Параметр Endianness формата : Big
Идентификатор кодека : A_AC3
Продолжительность : 1 ч. 45 м.
Вид битрейта : Постоянный
Битрейт : 192 Кбит/сек
Каналы : 2 канала
Расположение каналов : Front: L R
Частота : 48,0 КГц
Частота кадров : 31,250 кадров/сек (1536 spf)
Метод сжатия : С потерями
Размер потока : 144 Мбайт (2%)
Заголовок : |Одноголосый закадровый, Н. Севастьянов|
Язык : Russian
Default : Нет
Forced : Нет
Аудио #3
Идентификатор : 4
Формат : DTS
Формат/Информация : Digital Theater Systems
Режим : 16
Параметр Endianness формата : Big
Идентификатор кодека : A_DTS
Продолжительность : 1 ч. 45 м.
Вид битрейта : Постоянный
Битрейт : 1509 Кбит/сек
Каналы : 2 канала
Расположение каналов : Front: L R
Частота : 48,0 КГц
Частота кадров : 93,750 кадра/сек (512 spf)
Битовая глубина : 24 бит
Метод сжатия : С потерями
Размер потока : 1,11 Гбайт (13%)
Язык : English
Default : Нет
Forced : Нет
Меню
00:00:00.000 : en:00:00:00.000
00:12:49.185 : en:00:12:49.185
00:23:26.655 : en:00:23:26.655
00:37:25.994 : en:00:37:25.994
00:49:20.749 : en:00:49:20.749
01:05:18.540 : en:01:05:18.540
01:17:25.891 : en:01:17:25.891
01:27:43.592 : en:01:27:43.592

Релиз:


_________________
Проголосуй за трекер Открытый торрент трекер - RUS-MEDIA.ORG

Проголосуй Открытый торрент трекер - RUS-MEDIA.ORG


Вернуться к началу
 Профиль Отправить личное сообщение  
 
   Похожие торренты   Автор   Торрент   Размер 
В этой теме нет новых непрочитанных сообщений. Убийства по чёткам / The Rosary Murders [триллер, драма, криминал, детектив, 1987] HDRip, Dvo

salma3

91 | 5

1.59 ГБ

В этой теме нет новых непрочитанных сообщений. Убийства на улице Морг / Murders in the Rue Morgue [триллер, криминал, детектив, 1971] BDRemux 1080p, Mvo

salma3

12 | 16

21.61 ГБ

В этой теме нет новых непрочитанных сообщений. Убийства в Оксфорде / The Oxford Murders [Триллер, мелодрама, криминал, 2008] BDRip-AVC, Mvo

salma3

0 | 0

2.05 ГБ

В этой теме нет новых непрочитанных сообщений. Убийства в Оксфорде / The Oxford Murders [Триллер, мелодрама, криминал, 2008] BDRip 1080р, Mvo

salma3

25 | 2

11.28 ГБ

В этой теме нет новых непрочитанных сообщений. Убийства в Оксфорде / The Oxford Murders [детектив, триллер, 2008] HDRip, Mvo

salma3

0 | 0

1.46 ГБ

В этой теме нет новых непрочитанных сообщений. Речные убийства / The River Murders [Триллер, 2011] BDRemux 1080p, Avo

salma3

18 | 13

16.91 ГБ

В этой теме нет новых непрочитанных сообщений. Убийства в Черри-Фолс / Cherry Falls [ужасы, триллер, комедия, детектив, 2000] BDRip 720p, Dvo

salma3

25 | 41

4.35 ГБ


Начать новую тему Ответить на тему  [ 1 сообщение ] 




Для Мосгорсуда, Роскомнадзора и рекламодателей:: mosgorsud-torrent[собачка]yandex.ru
cron