Торрент файл
скачать торрент магнет ссылка Добавлен: 31 май 2016, 23:30
Размер: 16.81 ГБ
Сидеров: 7
Личеров: 2
Автор

СообщениеДобавлено: 31 май 2016, 23:30 

Не в сети
Супермодератор
Аватара пользователя
Дата регистрации:
15 фев 2012, 16:44
Возраст: 29
Спасибо: 7434 / 2147
Сообщения: 80216
Страна: США
Жанр: Фантастика, Боевик
Год выпуска: 1984
Продолжительность: 01:16:30
Перевод: Авторский одноголосный закадровый Пётр Карцев
Cубтитры: английские
Оригинальная аудиодорожка: английский
Режиссер: Чарльз Бэнд / Charles Band
В ролях: Тим Томерсон, Хелен Хант, Майкл Стефани, Арт Ла Флер, Телма Хопкинс, Ричард Херд, Энн Сеймур, Мигель Фернадес, Бифф Мэнард, Пит Шрам, Брэд Логан, Ричард Эрдман, Уайли Харкер, Барбара Перри

Описание: Из далекого будущего в наши дни в Лос-Анджелес направляют полицейского по имени Джек Дес, который должен отыскать преступника Мартина Уистлера и доставить его «обратно» в будущее. Ему предстоит сражаться с трансерами — людьми-зомби, которых лишает воли преступник, и встретить свою любовь. В конце концов Джека будет преследовать вся полиция Лос-Анджелеса во главе с Уистлером. От исхода их схватки зависит судьба человечества….



Качество видео: BDRemux
Формат видео: MKV
Видео: AVC, 1920x1080 (16:9), 23.976 fps, 28.7 Mbps (0.576 bit/pixel)
Аудио #1: AC-3, 48.0 KHz, 2 ch, 192 Kbps, CBR (Russian)
Аудио #2: DTS MA / Core, 48.0 KHz, 6 ch, 1 576 Kbps / 1 510 Kbps, VBR (English)
Аудио #3: AC-3, 48.0 KHz, 2 ch, 320 Kbps, CBR (English, комментарии режиссера Чарльза Бэнда и актера Тима Томерсона)
Формат субтитров: softsub (SRT)
Общее
Уникальный идентификатор : 209097114026044821217126030691189802015 (0x9D4EA3AA651E07AA89CF764C8A0E441F)
Формат : Matroska
Версия формата : Version 4 / Version 2
Размер файла : 16,8 Гбайт
Продолжительность : 1 ч. 16 м.
Режим общего битрейта : Переменный
Общий поток : 31,4 Мбит/сек
Дата кодирования : UTC 2016-05-28 11:51:00
Программа кодирования : mkvmerge v7.0.0 ('Where We Going') 64bit built on Jun 9 2014 15:16:27
Библиотека кодирования : libebml v1.3.0 + libmatroska v1.4.1
Видео
Идентификатор : 1
Формат : AVC
Формат/Информация : Advanced Video Codec
Профиль формата : High@L4.1
Параметр CABAC формата : Да
Параметр ReFrames формата : 3 кадра
Идентификатор кодека : V_MPEG4/ISO/AVC
Продолжительность : 1 ч. 16 м.
Вид битрейта : Переменный
Битрейт : 29,0 Мбит/сек
Максимальный битрейт : 35,0 Мбит/сек
Ширина : 1920 пикселей
Высота : 1080 пикселей
Соотношение сторон : 16:9
Режим частоты кадров : Постоянный
Частота кадров : 23,976 (24000/1001) кадра/сек
Стандарт вещания : NTSC
Цветовое пространство : YUV
Субдискретизация насыщенности : 4:2:0
Битовая глубина : 8 бит
Тип развёртки : Прогрессивная
Бит/(Пиксели*Кадры) : 0.583
Размер потока : 15,5 Гбайт (92%)
Default : Да
Forced : Нет
Цветовой диапазон : Limited
Основные цвета : BT.709
Характеристики трансфера : BT.709
Коэффициенты матрицы : BT.709
Аудио #1
Идентификатор : 2
Формат : AC-3
Формат/Информация : Audio Coding 3
Расширение режима : CM (complete main)
Параметр Endianness формата : Big
Идентификатор кодека : A_AC3
Продолжительность : 1 ч. 16 м.
Вид битрейта : Постоянный
Битрейт : 192 Кбит/сек
Каналы : 2 канала
Расположение каналов : Front: L R
Частота : 48,0 КГц
Частота кадров : 31,250 кадров/сек (1536 spf)
Метод сжатия : С потерями
Размер потока : 105 Мбайт (1%)
Заголовок : Russian
Язык : Russian
Default : Да
Forced : Нет
Аудио #2
Идентификатор : 3
Формат : DTS
Формат/Информация : Digital Theater Systems
Профиль формата : MA / Core
Режим : 16
Параметр Endianness формата : Big
Идентификатор кодека : A_DTS
Продолжительность : 1 ч. 16 м.
Вид битрейта : Переменный / Постоянный
Битрейт : 1862 Кбит/сек / 1509 Кбит/сек
Каналы : 6 каналов
Расположение каналов : Front: L C R, Side: L R, LFE
Частота : 48,0 КГц
Частота кадров : 93,750 кадра/сек (512 spf)
Битовая глубина : 16 бит
Метод сжатия : Без потерь / Lossy
Размер потока : 1022 Мбайт (6%)
Заголовок : English
Язык : English
Default : Нет
Forced : Нет
Аудио #3
Идентификатор : 4
Формат : AC-3
Формат/Информация : Audio Coding 3
Расширение режима : CM (complete main)
Параметр Endianness формата : Big
Идентификатор кодека : A_AC3
Продолжительность : 1 ч. 16 м.
Вид битрейта : Постоянный
Битрейт : 320 Кбит/сек
Каналы : 2 канала
Расположение каналов : Front: L R
Частота : 48,0 КГц
Частота кадров : 31,250 кадров/сек (1536 spf)
Метод сжатия : С потерями
Размер потока : 176 Мбайт (1%)
Заголовок : English_Comments
Язык : English
Default : Нет
Forced : Нет
Текст
Идентификатор : 5
Формат : UTF-8
Идентификатор кодека : S_TEXT/UTF8
Идентификатор кодека/Информация : UTF-8 Plain Text
Продолжительность : 1 ч. 13 м.
Битрейт : 45 бит/сек
Count of elements : 765
Размер потока : 24,4 Кбайт (0%)
Заголовок : English
Язык : English
Default : Нет
Forced : Нет
Меню
00:00:00.000 : en:1
00:02:15.052 : en:2
00:07:02.714 : en:3
00:13:15.503 : en:4
00:16:20.229 : en:5
00:20:49.039 : en:6
00:27:16.593 : en:7
00:33:56.368 : en:8
00:40:23.212 : en:9
00:47:43.277 : en:10
00:53:38.590 : en:11
01:00:30.961 : en:12
01:07:41.849 : en:13
01:13:35.745 : en:14




_________________
Проголосуй за трекер Открытый торрент трекер - RUS-MEDIA.ORG

Проголосуй Открытый торрент трекер - RUS-MEDIA.ORG


Вернуться к началу
 Профиль Отправить личное сообщение  
 
   Похожие торренты   Автор   Торрент   Размер 
В этой теме нет новых непрочитанных сообщений. Трансеры / Полицейский будущего / Trancers / Future Cop [Фантастика, Боевик, 1984] BDRip 720p, Avo

salma3

40 | 7

5.97 ГБ

В этой теме нет новых непрочитанных сообщений. Удар из будущего / Future Kick [Боевик, фантастика, 1991] DVDRip-AVC, Mvo

salma3

133 | 33

1.51 ГБ

В этой теме нет новых непрочитанных сообщений. Полиция будущего / Future Force [фантастика, боевик, криминал, 1989] DVDRip, Avo

salma3

0 | 0

1.46 ГБ

В этой теме нет новых непрочитанных сообщений. Полиция будущего / Future Force [фантастика, боевик, криминал, 1989] DVDRip-AVC, Avo

salma3

0 | 0

1.52 ГБ

В этой теме нет новых непрочитанных сообщений. Люди Икс: Дни минувшего будущего / X-Men: Days of Future Past [фантастика, боевик, триллер, 2014] BDRip-HEVC 1080p, Dub [Rogue Cut]

salma3

0 | 0

6.98 ГБ

В этой теме нет новых непрочитанных сообщений. Люди Икс: Дни минувшего будущего / X-Men: Days of Future Past [фантастика, боевик, триллер, 2014] WEBRip 1080p. Dub [Open Matte]

salma3

0 | 0

7.39 ГБ

В этой теме нет новых непрочитанных сообщений. Грань будущего / Edge of Tomorrow [Фантастика, боевик, 2014] BDRemux 1080p, Dvo+Sub

salma3

0 | 0

45.92 ГБ


СообщениеДобавлено: 02 июн 2016, 03:29 

Не в сети
Аватара пользователя
Дата регистрации:
16 мар 2014, 09:15
Спасибо: 0 / 40
Сообщения: 35
добавляйте украинский дубляж


Вернуться к началу
 Профиль Отправить личное сообщение  
 
Начать новую тему Ответить на тему  [ Сообщений: 2 ] 




Для Мосгорсуда, Роскомнадзора и рекламодателей:: mosgorsud-torrent[собачка]yandex.ru
cron