Торрент файл
скачать торрент магнет ссылка Добавлен: 04 июн 2016, 20:33
Размер: 6.35 ГБ
Сидеров: 22
Личеров: 27
Автор

СообщениеДобавлено: 04 июн 2016, 20:33 

Не в сети
Супермодератор
Аватара пользователя
Дата регистрации:
15 фев 2012, 16:44
Возраст: 29
Спасибо: 7401 / 2147
Сообщения: 78470
Год выхода: 1988
Жанр: боевик, триллер, криминал
Режиссер: Дж. Ли Томпсон

В ролях: Чарльз Бронсон, Триш Ван Девере, Лоуренс Лакинбилл, Дэниэл Бензали, Мэрлин Хэссет, Чарльз Диркоп, Джефф Кори, Джон Айрленд, Пенни Пейсер, Джин Дэвис

О фильме:
Однажды к заброшенному в захолустье, где-то в глубине Америки, дому бесшумно подъехала машина и остановилась там, где играют дети. Чем-то зловещим и ужасным веяло от ее облика и от человека, который не спеша вылез из нее. И детишки, смутно почувствовав суеверный подсознательный страх, попятились от незнакомца. Но его лица они не запомнят.
Выстрелом в упор, по одному на каждого, он прикончит их хладнокровно и без сожаления. И также, не тратя лишних патронов, уничтожит женщин, оставшихся в доме… А спустя некоторое время отважный репортер (Бронсон) начнет собственное расследование о секте мормонов.



Страна: США
Студия: Golan-Globus Productions
Продолжительность: 01:31:19
Перевод:
1. Профессиональный (многоголосый закадровый)
2. Профессиональный (многоголосый закадровый) Paramount Channel
3. Авторский (одноголосый закадровый) Ю. Живов
4. Авторский (одноголосый закадровый) А. Гаврилов
Файл
Кодек: AVC
Качество: BDRip 720p
Видео: 1280x688, 8789 kbps, 23,976 fps, 0,416 Bits/(Pixel*Frame)
Звук:
1. AC3, 48 kHz, 2 ch, 192 kbps - RUS [MVO]
2. AC3, 48 kHz, 2 ch, 192 kbps - RUS [MVO]
3. AC3, 48 kHz, 2 ch, 192 kbps - RUS [AVO]
4. AC3, 48 kHz, 2 ch, 192 kbps - RUS [AVO]
5. AC3, 48 kHz, 2 ch, 192 kbps - ENG [Original]
Субтитры: нет
General
Unique ID : 240815265138639571137385755879231127870 (0xB52B5540C5DBA6C5B089BAB5F9FB013E)
Complete name : F:Messenger.of.Death1988.BDRip.720p_by_Bathory.mkv
Format : Matroska
Format version : Version 4 / Version 2
File size : 6.35 GiB
Duration : 1h 31mn
Overall bit rate : 9 947 Kbps
Encoded date : UTC 2016-06-03 11:44:40
Writing application : mkvmerge v8.6.1 ('Flying') 64bit
Writing library : libebml v1.3.3 + libmatroska v1.4.4
DURATION : 01:31:19.520000000
NUMBER_OF_FRAMES : 171235
NUMBER_OF_BYTES : 131508480
_STATISTICS_WRITING_APP : mkvmerge v8.6.1 ('Flying') 64bit
_STATISTICS_WRITING_DATE_UTC : 2016-06-03 11:44:40
_STATISTICS_TAGS : BPS DURATION NUMBER_OF_FRAMES NUMBER_OF_BYTES
Video
ID : 1
Format : AVC
Format/Info : Advanced Video Codec
Format profile : High@L4.1
Format settings, CABAC : Yes
Format settings, ReFrames : 9 frames
Codec ID : V_MPEG4/ISO/AVC
Duration : 1h 31mn
Bit rate : 8 789 Kbps
Width : 1 280 pixels
Height : 688 pixels
Display aspect ratio : 1.85:1
Frame rate mode : Constant
Frame rate : 23.976 fps
Color space : YUV
Chroma subsampling : 4:2:0
Bit depth : 8 bits
Scan type : Progressive
Bits/(Pixel*Frame) : 0.416
Stream size : 5.61 GiB (88%)
Writing library : x264 core 148 r2692 64f4e24
Encoding settings : cabac=1 / ref=9 / deblock=1:-2:-2 / analyse=0x3:0x133 / me=umh / subme=9 / psy=1 / psy_rd=1.10:0.12 / mixed_ref=1 / me_range=32 / chroma_me=1 / trellis=2 / 8x8dct=1 / cqm=0 / deadzone=21,11 / fast_pskip=0 / chroma_qp_offset=-3 / threads=12 / lookahead_threads=3 / sliced_threads=0 / nr=0 / decimate=0 / interlaced=0 / bluray_compat=0 / constrained_intra=0 / bframes=12 / b_pyramid=2 / b_adapt=2 / b_bias=0 / direct=3 / weightb=1 / open_gop=0 / weightp=2 / keyint=240 / keyint_min=23 / scenecut=0 / intra_refresh=0 / rc=cqp / mbtree=0 / qp=18 / ip_ratio=1.40 / pb_ratio=1.30 / aq=0
Default : Yes
Forced : No
Audio #1
ID : 2
Format : AC-3
Format/Info : Audio Coding 3
Mode extension : CM (complete main)
Format settings, Endianness : Big
Codec ID : A_AC3
Duration : 1h 31mn
Bit rate mode : Constant
Bit rate : 192 Kbps
Channel(s) : 2 channels
Channel positions : Front: L R
Sampling rate : 48.0 KHz
Bit depth : 16 bits
Compression mode : Lossy
Stream size : 125 MiB (2%)
Default : Yes
Forced : No
Audio #2
ID : 3
Format : AC-3
Format/Info : Audio Coding 3
Mode extension : CM (complete main)
Format settings, Endianness : Big
Codec ID : A_AC3
Duration : 1h 31mn
Bit rate mode : Constant
Bit rate : 192 Kbps
Channel(s) : 2 channels
Channel positions : Front: L R
Sampling rate : 48.0 KHz
Bit depth : 16 bits
Compression mode : Lossy
Stream size : 125 MiB (2%)
Default : No
Forced : No
Audio #3
ID : 4
Format : AC-3
Format/Info : Audio Coding 3
Mode extension : CM (complete main)
Format settings, Endianness : Big
Codec ID : A_AC3
Duration : 1h 31mn
Bit rate mode : Constant
Bit rate : 192 Kbps
Channel(s) : 2 channels
Channel positions : Front: L R
Sampling rate : 48.0 KHz
Bit depth : 16 bits
Compression mode : Lossy
Stream size : 125 MiB (2%)
Default : No
Forced : No
Audio #4
ID : 5
Format : AC-3
Format/Info : Audio Coding 3
Mode extension : CM (complete main)
Format settings, Endianness : Big
Codec ID : A_AC3
Duration : 1h 31mn
Bit rate mode : Constant
Bit rate : 192 Kbps
Channel(s) : 2 channels
Channel positions : Front: L R
Sampling rate : 48.0 KHz
Bit depth : 16 bits
Compression mode : Lossy
Stream size : 125 MiB (2%)
Default : No
Forced : No
Audio #5
ID : 6
Format : AC-3
Format/Info : Audio Coding 3
Mode extension : CM (complete main)
Format settings, Endianness : Big
Codec ID : A_AC3
Duration : 1h 31mn
Bit rate mode : Constant
Bit rate : 192 Kbps
Channel(s) : 2 channels
Channel positions : Front: L R
Sampling rate : 48.0 KHz
Bit depth : 16 bits
Compression mode : Lossy
Stream size : 125 MiB (2%)
Default : No
Forced : No


Релиз от:
Автор рипа: _Bathory_[/font]


_________________
Проголосуй за трекер Открытый торрент трекер - RUS-MEDIA.ORG

Проголосуй Открытый торрент трекер - RUS-MEDIA.ORG


Вернуться к началу
 Профиль Отправить личное сообщение  
 
   Похожие торренты   Автор   Торрент   Размер 
В этой теме нет новых непрочитанных сообщений. Посланник смерти / Messenger of Death [боевик, триллер, криминал, 1988] BDRip, Mvo

salma3

0 | 0

1.45 ГБ

В этой теме нет новых непрочитанных сообщений. Жажда смерти 5: Лик смерти / Death Wish V: The Face of Death [Боевик, Криминал, Триллер, 1994] BDRip-AVC, mvo

salma3

17 | 4

2.85 ГБ

В этой теме нет новых непрочитанных сообщений. Жажда смерти / Death Wish [боевик, триллер, криминал, 2018] BDRip 720p, Dub [iTunes]

salma3

0 | 0

5.22 ГБ

В этой теме нет новых непрочитанных сообщений. Посланник / The Messenger [драма, мелодрама, военный, 2009] BDRip-AVC, Mvo

salma3

26 | 7

2.19 ГБ

В этой теме нет новых непрочитанных сообщений. Посланник / The Messenger [Ужасы, триллер, драма, детектив, 2015] WEB-DLRip, dvo

Dracon

298 | 12

1.45 ГБ

В этой теме нет новых непрочитанных сообщений. Жажда смерти / Death Wish [Боевик, триллер, криминал, 2018] BDRip, Dub [iTunes]

salma3

0 | 1

1.41 ГБ

В этой теме нет новых непрочитанных сообщений. Жажда смерти / Death Wish [Боевик, триллер, криминал, 2018] BDRip, Dub [iTunes]

salma3

0 | 0

2.14 ГБ


Начать новую тему Ответить на тему  [ 1 сообщение ] 




Для Мосгорсуда, Роскомнадзора и рекламодателей:: mosgorsud-torrent[собачка]yandex.ru
cron