Торрент файл
скачать торрент магнет ссылка Добавлен: 16 июл 2016, 12:17
Размер: 18.38 ГБ
Сидеров: 19
Личеров: 7
Автор

СообщениеДобавлено: 16 июл 2016, 12:17 

В сети
Супермодератор
Аватара пользователя
Дата регистрации:
15 фев 2012, 16:44
Возраст: 29
Спасибо: 7400 / 2147
Сообщения: 78337
Страна: Великобритания США Италия
Производство: Capitol Films, Chicagofilms, Film Council, Medusa Film S.p.a., Sandcastle 5 Productions, USA Films
Год выпуска: 2001
Жанр: драма, детектив
Продолжительность: 02:17:26
Режиссер: Роберт Олтмен
Авторы сценария: Джулиан Феллоуз, Роберт Олтмен, Боб Бэлабан
В ролях: Келли Макдоналд, Эмили Уотсон, Кристин Скотт Томас, Майкл Гэмбон, Клайв Оуэн, Хелен Миррен, Райан Филипп, Мэгги Смит, Айлин Эткинс
Описание: В пасмурный ноябрьский день 1932 года в имении сэра Уильяма МакКордала, поместье Госфорд Парк, собираются гости: родственники и друзья, аристократы и знаменитости. Посетители сэра Уильяма намереваются провести несколько дней, наслаждаясь роскошью жилища, отдав привычную дань изысканному чревоугодию и великосветским ритуалам.
Всё готово к очередному шикарному и томному празднику беспечных прожигателей жизни. Но… внезапно хозяина дома находят мертвым, и что самое неприятное, кто-то поспособствовал его внезапной встрече со Всевышним. А дальше начинается «закрученный», классический детектив, за который бы удавилась сама Агата Кристи...



Перевод: Профессиональный (многоголосый, закадровый) | CP-Digital
Субтитры: русские (2 вида)

Качество: BDRemux 1080p
Формат: МКV
Видео кодек: AVC
Аудио кодек: АС3 | DTS
Видео: 1920x1080 (16:9), 23.976 fps, MPEG-4 AVC ~16.8 Mbps avg
Аудио №1: 48.0 kHz, AC3 Dolby Digital, 3/2 (L,C,R,l,r) + LFE ch, ~448 kbps | RUS / CP-Digital
Аудио №2: 48.0 kHz, Digital Theater Systems МА, 3/2 (L,C,R,l,r) + LFE ch, ~1 561 kbps | ENG
Формат субтитров: UTF-8 Plain Text
Бюджет: $19 800 000
Дата премьеры (мир): 7 ноября 2001


Премия Оскар, 2002 год
» Лучший сценарий
General
Format : Matroska
Format version : Version 2
File size : 18.4 GiB
Duration : 2h 17mn
Overall bit rate mode : Variable
Overall bit rate : 19.1 Mbps
Encoded date : UTC 2009-08-16 02:31:09
Writing application : mkvmerge v2.9.8 ('C'est le bon') built on Aug 13 2009 12:49:06
Writing library : libebml v0.7.7 + libmatroska v0.8.1
Video
ID : 1
Format : AVC
Format/Info : Advanced Video Codec
Format profile : High@L4.1
Format settings, CABAC : Yes
Format settings, ReFrames : 4 frames
Format settings, GOP : M=3, N=18
Muxing mode : Container profile=Unknown@0.0
Codec ID : V_MPEG4/ISO/AVC
Duration : 2h 17mn
Bit rate mode : Variable
Bit rate : 16.8 Mbps
Maximum bit rate : 30.0 Mbps
Width : 1 920 pixels
Height : 1 080 pixels
Display aspect ratio : 16:9
Frame rate : 23.976 fps
Standard : NTSC
Color space : YUV
Chroma subsampling : 4:2:0
Bit depth : 8 bits
Scan type : Progressive
Bits/(Pixel*Frame) : 0.337
Stream size : 16.1 GiB (88%)
Color primaries : BT.709-5, BT.1361, IEC 61966-2-4, SMPTE RP177
Transfer characteristics : BT.709-5, BT.1361
Matrix coefficients : BT.709-5, BT.1361, IEC 61966-2-4 709, SMPTE RP177
Audio #1
ID : 2
Format : AC-3
Format/Info : Audio Coding 3
Mode extension : CM (complete main)
Codec ID : A_AC3
Duration : 2h 17mn
Bit rate mode : Constant
Bit rate : 448 Kbps
Channel(s) : 6 channels
Channel positions : Front: L C R, Side: L R, LFE
Sampling rate : 48.0 KHz
Bit depth : 16 bits
Compression mode : Lossy
Stream size : 440 MiB (2%)
Title : Russian
Language : Russian
Audio #2
ID : 3
Format : DTS
Format/Info : Digital Theater Systems
Format profile : MA / Core
Codec ID : A_DTS
Duration : 2h 17mn
Bit rate mode : Variable
Bit rate : 1 561 Kbps / 1 510 Kbps
Channel(s) : 6 channels
Channel positions : Front: L C R, Side: L R, LFE
Sampling rate : 48.0 KHz
Bit depth : 24 bits
Compression mode : Lossless / Lossy
Title : English
Language : English
Text #1
ID : 4
Format : UTF-8
Codec ID : S_TEXT/UTF8
Codec ID/Info : UTF-8 Plain Text
Title : Russian
Language : Russian
Text #2
ID : 5
Format : UTF-8
Codec ID : S_TEXT/UTF8
Codec ID/Info : UTF-8 Plain Text
Title : Russian
Language : Russian



_________________
Проголосуй за трекер Открытый торрент трекер - RUS-MEDIA.ORG

Проголосуй Открытый торрент трекер - RUS-MEDIA.ORG


Вернуться к началу
 Профиль Отправить личное сообщение  
 
   Похожие торренты   Автор   Торрент   Размер 
В этой теме нет новых непрочитанных сообщений. Госфорд парк / Gosford Park [драма, детектив, 2001] BDRip 720p, Mvo

salma3

2 | 2

7.03 ГБ

В этой теме нет новых непрочитанных сообщений. Парк Юрского периода 3 / Jurassic Park III [Фантастика, триллер, приключения, 2001] UHD BDRemux 2160p , Dub [4K]

salma3

0 | 0

57.57 ГБ

В этой теме нет новых непрочитанных сообщений. Парк Юрского периода / Jurassic Park [Фантастика, приключения, семейный, 1993] BDRemux 1080p, Dub

salma3

1 | 1

36.04 ГБ

В этой теме нет новых непрочитанных сообщений. Парк Юрского периода / Jurassic Park [Фантастика, приключения, семейный, 1993] UHD BDRemux 2160p, Dub [4K]

salma3

0 | 0

115.13 ГБ

В этой теме нет новых непрочитанных сообщений. Парк Юрского периода 2: Затерянный мир / The Lost World: Jurassic Park [Фантастика, боевик, триллер, 1997] UHD BDRemux 2160p , Dub [4K] [Лицензия]

salma3

0 | 0

99.71 ГБ

В этой теме нет новых непрочитанных сообщений. Парк Юрского периода / Jurassic Park [приключения, фантастика, семейный, 1993] BDRip 1080p, Dub+Mvo+Sub

salma3

18 | 31

14.55 ГБ

В этой теме нет новых непрочитанных сообщений. Это мой парк / The Park Is Mine [боевик, триллер, драма, 1985] HDRip, Avo

salma3

156 | 32

1.45 ГБ


Начать новую тему Ответить на тему  [ 1 сообщение ] 




Для Мосгорсуда, Роскомнадзора и рекламодателей:: mosgorsud-torrent[собачка]yandex.ru
cron