Торрент файл
скачать торрент магнет ссылка Добавлен: 27 авг 2016, 20:39
Размер: 18.11 ГБ
Сидеров: 9
Личеров: 3
Автор

СообщениеДобавлено: 27 авг 2016, 20:39 

Не в сети
Супермодератор
Аватара пользователя
Дата регистрации:
15 фев 2012, 16:44
Возраст: 29
Спасибо: 7422 / 2147
Сообщения: 79971
Перевод: Профессиональный (многоголосый, закадровый)
Субтитры: русские, английские
Формат: BDRemux, MKV, H.264, AC3/DTS-HD (MA)
Страна: США
Режиссер: Джон Хайамс
Жанр: боевик, триллер, драма, криминал
Продолжительность: 01:27:47
Год выпуска: 2012

В ролях: Жан-Клод Ван Дамм, Питер Уэллер, Кунг Ле, Кристал Мантекон, Джонни Холмс, Сэм Медина, Гилберт Мелендес, Адриан Хэммонд, Дэнни Космо Хиггинботтом, Дэнни Мора

Описание: Новый Орлеан, наши дни. Как и любой другой процветающий мегаполис мира, — это город контрастов, где есть и блеск, и грязь, встречаются роскошные дворцы и нищенские трущобы, где есть место великим возможностям и невероятным шансам самореализации, а вместе с тем — рискованным случайностям и проблематичным ситуациям. Однако, существуют куда более острые проблемы в виде деятельности организованной преступности и гангстерских группировок, которые интенсивно наращивают свою массу и влияние, повсюду распространяя оружие и наркотики. Страшнее же этого может быть только коррумпированность представителей закона и продажность органов власти. Но даже там, где всё куплено и схвачено, найдутся смельчаки, у которых есть в планах сломать систему и выкорчевать всю гниль устоявшегося порядка вещей. И вот однажды, устав от творящегося беззакония и беспорядка, обычный человек, но бдительный гражданин, бросает вызов «элите» нечистых на руку полицейских и погрязших в коррупции служителей закона, матёрым гангстерам и всесильным заправилам криминального мира. Как оказалось, вступить в неравный бой — лишь капля в море по сравнению с тем, чему суждено случиться дальше.

Рейтинг на IMDB: 4.5/10
Рейтинг MPAA: R
Рейтинг на КиноПоиск.Ru: 4.773

Видео: 1920x1080p (2.35:1), 25 fps, MPEG-4 Video (x264), ~ 26.8 Mbps, 0.517 bit/pixel

Аудио#1: Русский: Русский 48 kHz, (AC3), 2ch, ~ 192 kbps [Профессиональный (многоголосый, закадровый) R5]
Аудио#2: Русский: Русский 48 kHz, (AC3), 2ch, ~ 192 kbps [Профессиональный (двухголосый) НТВ+]
Аудио#3: Русский: Русский 48 kHz, (AC3), 2ch, ~ 192 kbps [Любительский (двухголосый) Чип и Дейл]
Аудио#4: Английский: 48 kHz, DTS-HD Master Audio, 6ch, ~2093 kbps, 24-bit (DTS Core: 5.1 ch, 48 kHz, 1509 kbps, 24-bit) [Оригинал]
Общее
Уникальный идентификатор : 178019180524049064781280543341762965996 (0x85ED3F3E5186EB6BA95EDDF5DAF5F1EC)
Полное имя : F:\HD\Глаза дракона.2012.Blu-Ray.Remux.(1080p).mkv
Формат : Matroska
Версия формата : Version 2
Размер файла : 18,1 Гбайт
Продолжительность : 1 ч. 27 м.
Режим общего битрейта : Переменный
Общий поток : 29,5 Мбит/сек
Дата кодирования : UTC 2012-10-10 18:31:03
Программа кодирования : mkvmerge v5.8.0 ('No Sleep / Pillow') built on Sep 2 2012 15:37:04
Библиотека кодирования : libebml v1.2.3 + libmatroska v1.3.0

Видео
Идентификатор : 1
Формат : AVC
Формат/Информация : Advanced Video Codec
Профиль формата :
Параметр CABAC формата : Да
Параметр ReFrames формата : 4 кадра
Режим смешивания : Container profile=Unknown@0.0
Идентификатор кодека : V_MPEG4/ISO/AVC
Продолжительность : 1 ч. 27 м.
Вид битрейта : Переменный
Битрейт : 26,8 Мбит/сек
Максимальный битрейт : 33,0 Мбит/сек
Ширина : 1920 пикселей
Высота : 1080 пикселей
Соотношение сторон : 16:9
Режим частоты кадров : Постоянный
Частота кадров : 25,000 кадров/сек
Цветовое пространство : YUV
Субдискретизация насыщенности : 4:2:0
Битовая глубина : 8 бит
Тип развёртки : Прогрессивная
Бит/(Пиксели*Кадры) : 0.517
Размер потока : 16,4 Гбайт (91%)
Default : Нет
Forced : Нет

Аудио #1
Идентификатор : 2
Формат : AC-3
Формат/Информация : Audio Coding 3
Расширение режима : CM (complete main)
Параметр Endianness формата : Big
Идентификатор кодека : A_AC3
Продолжительность : 1 ч. 27 м.
Вид битрейта : Постоянный
Битрейт : 192 Кбит/сек
Каналы : 2 канала
Расположение каналов : Front: L R
Частота : 48,0 КГц
Битовая глубина : 16 бит
Метод сжатия : С потерями
Размер потока : 121 Мбайт (1%)
Заголовок : MVO, R5
Язык : Russian
Default : Да
Forced : Нет

Аудио #2
Идентификатор : 3
Формат : AC-3
Формат/Информация : Audio Coding 3
Расширение режима : CM (complete main)
Параметр Endianness формата : Big
Идентификатор кодека : A_AC3
Продолжительность : 1 ч. 27 м.
Вид битрейта : Постоянный
Битрейт : 192 Кбит/сек
Каналы : 2 канала
Расположение каналов : Front: L R
Частота : 48,0 КГц
Битовая глубина : 16 бит
Метод сжатия : С потерями
Размер потока : 121 Мбайт (1%)
Заголовок : НТВ+
Язык : Russian
Default : Нет
Forced : Нет

Аудио #3
Идентификатор : 4
Формат : AC-3
Формат/Информация : Audio Coding 3
Расширение режима : CM (complete main)
Параметр Endianness формата : Big
Идентификатор кодека : A_AC3
Продолжительность : 1 ч. 27 м.
Вид битрейта : Постоянный
Битрейт : 192 Кбит/сек
Каналы : 2 канала
Расположение каналов : Front: L R
Частота : 48,0 КГц
Битовая глубина : 16 бит
Метод сжатия : С потерями
Размер потока : 121 Мбайт (1%)
Заголовок : Чип и Дейл
Язык : Russian
Default : Нет
Forced : Нет

Аудио #4
Идентификатор : 5
Формат : DTS
Формат/Информация : Digital Theater Systems
Профиль формата : MA / Core
Идентификатор кодека : A_DTS
Продолжительность : 1 ч. 27 м.
Вид битрейта : Переменный
Битрейт : 1561 Кбит/сек / 1510 Кбит/сек
Каналы : 6 каналов
Расположение каналов : Front: L C R, Side: L R, LFE
Частота : 48,0 КГц
Битовая глубина : 16 бит
Метод сжатия : Без потерь / Lossy
Язык : English
Default : Нет
Forced : Нет

Текст #1
Идентификатор : 6
Формат : UTF-8
Идентификатор кодека : S_TEXT/UTF8
Идентификатор кодека/Информация : UTF-8 Plain Text
Заголовок : wildTH
Язык : Russian
Default : Нет
Forced : Нет

Текст #2
Идентификатор : 7
Формат : UTF-8
Идентификатор кодека : S_TEXT/UTF8
Идентификатор кодека/Информация : UTF-8 Plain Text
Заголовок : 107miller
Язык : Russian
Default : Нет
Forced : Нет

Текст #3
Идентификатор : 8
Формат : UTF-8
Идентификатор кодека : S_TEXT/UTF8
Идентификатор кодека/Информация : UTF-8 Plain Text
Язык : English
Default : Нет
Forced : Нет

Меню
00:00:00.000 : :Chapter 01
00:06:31.800 : :Chapter 02
00:13:59.840 : :Chapter 03
00:21:06.320 : :Chapter 04
00:29:34.080 : :Chapter 05
00:37:40.840 : :Chapter 06
00:46:55.439 : :Chapter 07
00:54:35.920 : :Chapter 08
01:04:10.760 : :Chapter 09
01:09:30.640 : :Chapter 10
01:15:05.520 : :Chapter 11
01:23:52.880 : :Chapter 12





_________________
Проголосуй за трекер Открытый торрент трекер - RUS-MEDIA.ORG

Проголосуй Открытый торрент трекер - RUS-MEDIA.ORG


Вернуться к началу
 Профиль Отправить личное сообщение  
 
   Похожие торренты   Автор   Торрент   Размер 
В этой теме нет новых непрочитанных сообщений. Выход Дракона / Enter the Dragon [Боевик, триллер, драма, 1973] BDRemux 1080p, Dub

salma3

0 | 0

18.9 ГБ

В этой теме нет новых непрочитанных сообщений. Выход Дракона / Enter the Dragon [Боевик, триллер, драма, 1973] BDRemux 1080p, Dub [40th Anniversary Remastered Edition]

salma3

0 | 1

43.73 ГБ

В этой теме нет новых непрочитанных сообщений. У холмов есть глаза 2 / The Hills Have Eyes II [Ужасы, триллер, 2007] BDRemux 1080p, Dub [Unrated]

salma3

8 | 4

17.93 ГБ

В этой теме нет новых непрочитанных сообщений. Год Дракона / Year of the Dragon [боевик, триллер, драма, криминал, 1985] HDRip, Mvo

salma3

8 | 1

1.47 ГБ

В этой теме нет новых непрочитанных сообщений. У холмов есть глаза / The Hills Have Eyes [Ужасы, триллер, ремейк, 2006] BDRemux 1080p, Dub [Unrated]

salma3

2 | 7

34.76 ГБ

В этой теме нет новых непрочитанных сообщений. Поцелуй дракона / Kiss of The Dragon [боевик, триллер, драма, криминал, 2001] HDRip, Dub

salma3

104 | 27

1.45 ГБ

В этой теме нет новых непрочитанных сообщений. Год Дракона / Year of the Dragon [боевик, триллер, драма, криминал, 1985] BDRip 720p, Mvo

salma3

11 | 10

11.27 ГБ


Начать новую тему Ответить на тему  [ 1 сообщение ] 




Для Мосгорсуда, Роскомнадзора и рекламодателей:: mosgorsud-torrent[собачка]yandex.ru
cron