Торрент файл
скачать торрент магнет ссылка Добавлен: 30 сен 2016, 11:53
Размер: 4.36 ГБ
Сидеров: 27
Личеров: 9
Статус: (salma3)
Автор

СообщениеДобавлено: 30 сен 2016, 11:53 

Не в сети
Супермодератор
Аватара пользователя
Дата регистрации:
15 фев 2012, 16:44
Возраст: 29
Спасибо: 7428 / 2147
Сообщения: 80047
Год выхода: 2011
Жанр: боевик, драма
Режиссер: Майкл Павоне

В ролях: Джон Сина, Итэн Эмбри, Эми Смарт, Майкл Рисполи, Бойд Холбрук, Грегг Генри, Лела Лорен, Джек Конли, Дж.Д. Гарфилд, Джош Берри

О фильме:
Фильм об одной девушке которая по последнему желанию своего отца должна найти способ для примирения трех своих братьев.. Один из которых работает полицейским и находится в отставке, второй начальник одной фирмы и третий двадцатилетний вор, недавно вышедший из тюрьмы, который даже и не знает о существовании своей семьи…



Страна: США
Продолжительность: 01:36:00
Перевод: Профессиональный многоголосный, закадровый; любительский одноголосный, закадровый [RelizLab]

Файл
Кодек: H.264
Качество: BDRip 720p
Видео: MPEG-4 / AVC, 1280х688 (1.860), 23.976 fps ~ 5020 Kbps
Звук:
AC3, 48 KHz 6 ch ~ 384 Kb/s (многоголосный)
AC3, 48 KHz 6 ch ~ 448 Kb/s (любительский)
AC3, 48 KHz 2 ch ~ 192 Kb/s (украинский)
AC3, 48 KHz 6 ch ~ 448 Kb/s (английский)
Субтитры: английские, французские, испанские, португальские
Общее
Уникальный идентификатор : 214382151244084827688293270710080093328 (0xA148801E4C55E96AA5CBE6ADF0F9BC90)
Полное имя : Q:TorFThe.Reunion.2011.BDRip.(720p).mkv
Формат : Matroska
Версия формата : Version 4 / Version 2
Размер файла : 4,36 Гбайт
Продолжительность : 1 ч. 36 м.
Общий поток : 6495 Кбит/сек
Название фильма : The Reunion (2011)
Дата кодирования : UTC 2016-07-23 17:43:35
Программа кодирования : mkvmerge v6.9.1 ('Blue Panther') 64bit built on Apr 18 2014 18:23:38
Библиотека кодирования : libebml v1.3.0 + libmatroska v1.4.1
Видео
Идентификатор : 1
Формат : AVC
Формат/Информация : Advanced Video Codec
Профиль формата : High@L4.1
Параметр CABAC формата : Да
Параметр ReFrames формата : 9 кадров
Идентификатор кодека : V_MPEG4/ISO/AVC
Продолжительность : 1 ч. 36 м.
Битрейт : 5024 Кбит/сек
Ширина : 1280 пикселей
Высота : 688 пикселей
Соотношение сторон : 1,860
Частота кадров : 23,976 кадра/сек
Цветовое пространство : YUV
Субдискретизация насыщенности : 4:2:0
Битовая глубина : 8 бит
Тип развёртки : Прогрессивная
Бит/(Пиксели*Кадры) : 0.238
Размер потока : 3,28 Гбайт (75%)
Заголовок : The Reunion (2011)
Библиотека кодирования : x264 core 148 r2638 7599210
Настройки программы : cabac=1 / ref=9 / deblock=1:-3:-3 / analyse=0x3:0x133 / me=umh / subme=11 / psy=1 / psy_rd=1.00:0.00 / mixed_ref=1 / me_range=32 / chroma_me=1 / trellis=2 /
8x8dct=1 / cqm=0 / deadzone=21,11 / fast_pskip=1 / chroma_qp_offset=-2 / threads=6 / lookahead_threads=1 / sliced_threads=0 / nr=0 / decimate=1 / interlaced=0 / bluray_compat=0 /
constrained_intra=0 / bframes=5 / b_pyramid=2 / b_adapt=2 / b_bias=0 / direct=3 / weightb=1 / open_gop=0 / weightp=2 / keyint=240 / keyint_min=23 / scenecut=40 / intra_refresh=0 /
rc_lookahead=60 / rc=2pass / mbtree=1 / bitrate=5024 / ratetol=1.0 / qcomp=0.60 / qpmin=0 / qpmax=69 / qpstep=4 / cplxblur=20.0 / qblur=0.5 / vbv_maxrate=50000 / vbv_bufsize=62500 /
nal_hrd=none / filler=0 / ip_ratio=1.40 / aq=1:1.00
Язык : English
Default : Да
Forced : Нет
Аудио #1
Идентификатор : 2
Формат : AC-3
Формат/Информация : Audio Coding 3
Расширение режима : CM (complete main)
Идентификатор кодека : A_AC3
Продолжительность : 1 ч. 36 м.
Вид битрейта : Постоянный
Битрейт : 384 Кбит/сек
Каналы : 6 каналов
Расположение каналов : Front: L C R, Side: L R, LFE
Частота : 48,0 КГц
Битовая глубина : 16 бит
Метод сжатия : С потерями
Размер потока : 264 Мбайт (6%)
Заголовок : AC3, 6 ch, 384 Kbps, MVO
Язык : Russian
Default : Да
Forced : Нет
Аудио #2
Идентификатор : 3
Формат : AC-3
Формат/Информация : Audio Coding 3
Расширение режима : CM (complete main)
Идентификатор кодека : A_AC3
Продолжительность : 1 ч. 36 м.
Вид битрейта : Постоянный
Битрейт : 448 Кбит/сек
Каналы : 6 каналов
Расположение каналов : Front: L C R, Side: L R, LFE
Частота : 48,0 КГц
Битовая глубина : 16 бит
Метод сжатия : С потерями
Размер потока : 308 Мбайт (7%)
Заголовок : AC3, 6 ch, 448 Kbps, VO, RelizLab
Язык : Russian
Default : Нет
Forced : Нет
Аудио #3
Идентификатор : 4
Формат : AC-3
Формат/Информация : Audio Coding 3
Расширение режима : CM (complete main)
Идентификатор кодека : A_AC3
Продолжительность : 1 ч. 36 м.
Вид битрейта : Постоянный
Битрейт : 192 Кбит/сек
Каналы : 2 канала
Расположение каналов : Front: L R
Частота : 48,0 КГц
Битовая глубина : 16 бит
Метод сжатия : С потерями
Размер потока : 132 Мбайт (3%)
Заголовок : AC3, 2 ch, 192 Kbps, Українська
Язык : Ukrainian
Default : Нет
Forced : Нет
Аудио #4
Идентификатор : 5
Формат : AC-3
Формат/Информация : Audio Coding 3
Расширение режима : CM (complete main)
Идентификатор кодека : A_AC3
Продолжительность : 1 ч. 36 м.
Вид битрейта : Постоянный
Битрейт : 448 Кбит/сек
Каналы : 6 каналов
Расположение каналов : Front: L C R, Side: L R, LFE
Частота : 48,0 КГц
Битовая глубина : 16 бит
Метод сжатия : С потерями
Размер потока : 308 Мбайт (7%)
Заголовок : AC3, 6 ch, 448 Kbps, Original
Язык : English
Default : Нет
Forced : Нет
Текст #1
Идентификатор : 6
Формат : UTF-8
Идентификатор кодека : S_TEXT/UTF8
Идентификатор кодека/Информация : UTF-8 Plain Text
Язык : English
Default : Нет
Forced : Нет
Текст #2
Идентификатор : 7
Формат : UTF-8
Идентификатор кодека : S_TEXT/UTF8
Идентификатор кодека/Информация : UTF-8 Plain Text
Язык : French
Default : Нет
Forced : Нет
Текст #3
Идентификатор : 8
Формат : UTF-8
Идентификатор кодека : S_TEXT/UTF8
Идентификатор кодека/Информация : UTF-8 Plain Text
Язык : Spanish
Default : Нет
Forced : Нет
Текст #4
Идентификатор : 9
Формат : UTF-8
Идентификатор кодека : S_TEXT/UTF8
Идентификатор кодека/Информация : UTF-8 Plain Text
Язык : Portuguese
Default : Нет
Forced : Нет
Меню
00:00:00.000 : en:Chapter 01
00:03:25.870 : en:Chapter 02
00:07:29.380 : en:Chapter 03
00:19:19.020 : en:Chapter 04
00:26:38.280 : en:Chapter 05
00:34:58.000 : en:Chapter 06
00:44:22.650 : en:Chapter 07
00:59:03.760 : en:Chapter 08
01:07:36.720 : en:Chapter 09
01:14:51.840 : en:Chapter 10
01:22:21.870 : en:Chapter 11
01:31:02.760 : en:Chapter 12

Семпл


_________________
Проголосуй за трекер Открытый торрент трекер - RUS-MEDIA.ORG

Проголосуй Открытый торрент трекер - RUS-MEDIA.ORG


Вернуться к началу
 Профиль Отправить личное сообщение  
 
   Похожие торренты   Автор   Торрент   Размер 
В этой теме нет новых непрочитанных сообщений. Братство крови / Brotherhood of Blood [ужасы, триллер, 2007] DVDRip, Mvo

salma3

57 | 10

1.37 ГБ

В этой теме нет новых непрочитанных сообщений. Другой мир: Войны крови / Underworld: Blood Wars [Ужасы, боевик, 2016] BDRip 720p, Dub+Sub [Лицензия]

salma3

418 | 162

4.5 ГБ

В этой теме нет новых непрочитанных сообщений. Другой мир: Войны крови / Underworld: Blood Wars [ужасы, боевик, 2016] BDRip 720p, Dub [iPad] [Лицензия]

salma3

59 | 15

1.14 ГБ

В этой теме нет новых непрочитанных сообщений. Книга крови / Book of Blood [ужасы, триллер, драма, 2009] BDRip 720p, Dub [Режиссерская версия]

salma3

0 | 3

3.89 ГБ

В этой теме нет новых непрочитанных сообщений. Братство волка / Le Pacte des loups [Боевик, триллер, драма, 2001] Blu-Ray EUR 1080p, Dub [Лицензия]

salma3

41 | 89

42.23 ГБ

В этой теме нет новых непрочитанных сообщений. Другой мир: Войны крови / Underworld: Blood Wars [ужасы, боевик, 2016] BDRip, Avo

salma3

45 | 14

1.46 ГБ

В этой теме нет новых непрочитанных сообщений. Другой мир: Войны крови / Underworld: Blood Wars [Ужасы, боевик, 2016] BDRip-AVC, Dub+Sub [Лицензия]

salma3

401 | 117

1.5 ГБ


Начать новую тему Ответить на тему  [ 1 сообщение ] 




Для Мосгорсуда, Роскомнадзора и рекламодателей:: mosgorsud-torrent[собачка]yandex.ru
cron