Торрент файл
скачать торрент магнет ссылка Добавлен: 09 окт 2016, 01:20
Размер: 18.34 ГБ
Сидеров: 34
Личеров: 9
Статус: (salma3)
Автор

СообщениеДобавлено: 09 окт 2016, 01:20 

Не в сети
Дата регистрации:
28 сен 2016, 18:10
Спасибо: 217 / 0
Сообщения: 1995
Год выхода: 2016
Жанр: Комедия
Режиссер: Лоран Тирар
В ролях: Жан Дюжарден, Виржини Эфира, Седрик Кан, Стефани Папаниан, Сезар Домбуа, Эдмон Франчи, Мануэлль Гайар, Бруно Гомила, Камилль Дамур, Франсуа-Доминик Блен
О фильме:
Потерянный мобильник оборачивается для Дианы знакомством с поистине невероятным человеком по имени Александр. Он умен, неутомим и чертовски обаятелен. У него замечательное чувство юмора и, кажется, нет недостатков. Кроме одного... Его рост - чуть больше метра. Это небольшое препятствие оказывается источником огромных проблем и множества неудобных и смешных ситуаций для Дианы. Но настоящая любовь может победить всё, если, конечно, это очень большая любовь.



Страна: Франция
Студия: Canal+, Creative Andina
Продолжительность: 01:37:57
Перевод: Дублированный | iTunes
Файл
Кодек: MPEG-4
Качество: BDRemux 1080p
Видео: 1920x1080, 23.1 Mbit/s, 23.976 fps
Звук:
Аудио #01: 48 kHz, AC3, 5.1, 384 Kbps | Дублированный | iTunes |
Аудио #02: 48 kHz, DTS-HD MA, 5.1, 3302 kbps | Оригинал |
General
Unique ID : 242689467122510391056118931868225349739 (0xB6944A8B8CC604168660AC35204BA86B)
Complete name : H:VideoUn.homme.à.la.Hauteur.BDREMUX.1080p.ExKinoRay.mkv
Format : Matroska
Format version : Version 4 / Version 2
File size : 18.3 GiB
Duration : 1 h 37 min
Overall bit rate mode : Variable
Overall bit rate : 26.8 Mb/s
Movie name : build by ***селезень***
Encoded date : UTC 2016-10-02 21:32:52
Writing application : mkvmerge v8.3.0 ('Over the Horizon') 64bit
Writing library : libebml v1.3.1 + libmatroska v1.4.2
Video
ID : 1
Format : AVC
Format/Info : Advanced Video Codec
Format profile : High@L4.1
Format settings, CABAC : Yes
Format settings, ReFrames : 4 frames
Format settings, GOP : M=3, N=24
Codec ID : V_MPEG4/ISO/AVC
Duration : 1 h 37 min
Bit rate mode : Variable
Bit rate : 23.1 Mb/s
Maximum bit rate : 35.0 Mb/s
Width : 1 920 pixels
Height : 1 080 pixels
Display aspect ratio : 16:9
Frame rate mode : Constant
Frame rate : 24.000 FPS
Standard : NTSC
Color space : YUV
Chroma subsampling : 4:2:0
Bit depth : 8 bits
Scan type : Progressive
Bits/(Pixel*Frame) : 0.464
Stream size : 15.8 GiB (86%)
Title : build by ***селезень***
Language : French
Default : Yes
Forced : No
Color range : Limited
Color primaries : BT.709
Transfer characteristics : BT.709
Matrix coefficients : BT.709
Audio #1
ID : 2
Format : AC-3
Format/Info : Audio Coding 3
Mode extension : CM (complete main)
Format settings, Endianness : Big
Codec ID : A_AC3
Duration : 1 h 37 min
Bit rate mode : Constant
Bit rate : 384 kb/s
Channel(s) : 6 channels
Channel positions : Front: L C R, Side: L R, LFE
Sampling rate : 48.0 kHz
Frame rate : 31.250 FPS (1536 spf)
Compression mode : Lossy
Stream size : 269 MiB (1%)
Title : iTunes
Language : Russian
Default : Yes
Forced : No
Audio #2
ID : 3
Format : DTS
Format/Info : Digital Theater Systems
Format profile : MA / Core
Mode : 16
Format settings, Endianness : Big
Codec ID : A_DTS
Duration : 1 h 37 min
Bit rate mode : Variable / Constant
Bit rate : 3 302 kb/s / 1 509 kb/s
Channel(s) : 6 channels
Channel positions : Front: L C R, Side: L R, LFE
Sampling rate : 48.0 kHz
Frame rate : 93.750 FPS (512 spf)
Bit depth : 24 bits
Compression mode : Lossless / Lossy
Stream size : 2.26 GiB (12%)
Title : Original
Language : French
Default : No
Forced : No
Menu
00:00:00.000 : en:00:00:00.000
00:04:33.190 : en:00:04:33.190
00:07:24.235 : en:00:07:24.235
00:12:07.435 : en:00:12:07.435
00:16:39.790 : en:00:16:39.790
00:22:47.616 : en:00:22:47.616
00:24:59.623 : en:00:24:59.623
00:30:18.233 : en:00:30:18.233
00:35:29.794 : en:00:35:29.794
00:41:32.990 : en:00:41:32.990
00:45:20.051 : en:00:45:20.051
00:51:35.676 : en:00:51:35.676
00:54:11.039 : en:00:54:11.039
00:57:40.123 : en:00:57:40.123
01:04:18.521 : en:01:04:18.521
01:09:18.988 : en:01:09:18.988
01:12:46.279 : en:01:12:46.279
01:18:07.391 : en:01:18:07.391
01:23:20.245 : en:01:23:20.245
01:27:34.749 : en:01:27:34.749
01:32:15.947 : en:01:32:15.947
01:36:40.461 : en:01:36:40.461
01:40:12.590 : en:01:40:12.590
01:43:14.814 : en:01:43:14.814

Релиз от: Автор релиза:



Вернуться к началу
 Профиль Отправить личное сообщение  
 
   Похожие торренты   Автор   Торрент   Размер 
В этой теме нет новых непрочитанных сообщений. Любовь не по размеру / Un homme à la hauteur [Комедия, 2016] HDRip, Dub [iTunes]

marya111

239 | 28

2.05 ГБ

В этой теме нет новых непрочитанных сообщений. Любовь не по размеру / Un homme a la hauteur [комедия, 2016] BDRip 1080p, Dub [лицензия]

salma3

352 | 103

8.11 ГБ

В этой теме нет новых непрочитанных сообщений. Любовь не по размеру / Un homme a la hauteur [комедия, 2016] BDRip 720p, Dub [лицензия]

salma3

318 | 50

4.06 ГБ

В этой теме нет новых непрочитанных сообщений. Любовь не по размеру / Un homme à la hauteur (Лоран Тирар / Laurent Tirard) [2016г., Франция, комедия, WEB-DLRip] Dub

Alfredovich

254 | 1

1.45 ГБ

В этой теме нет новых непрочитанных сообщений. Любовь и страсть. Далида / Dalida [драма, биография, 2016] BDRemux 1080p, Dub [iTunes]

salma3

27 | 25

36.3 ГБ

В этой теме нет новых непрочитанных сообщений. Любовь без правил [комедия, 2016] WEB-DL 1080p [iTunes]

salma3

1793 | 459

3.1 ГБ

В этой теме нет новых непрочитанных сообщений. Если б я была мужчиной / Si j'étais un homme [Комедия, 2017] WEB-DL 1080p, Mvo [iTunes]

salma3

1625 | 1036

3.65 ГБ


Начать новую тему Ответить на тему  [ 1 сообщение ] 




Для Мосгорсуда, Роскомнадзора и рекламодателей:: mosgorsud-torrent[собачка]yandex.ru
cron