Торрент файл
скачать торрент магнет ссылка Добавлен: 15 окт 2016, 12:08
Размер: 7.74 ГБ
Сидеров: 101
Личеров: 40
Статус: (salma3)
Автор

СообщениеДобавлено: 15 окт 2016, 12:08 

Не в сети
Супермодератор
Аватара пользователя
Дата регистрации:
15 фев 2012, 16:44
Возраст: 29
Спасибо: 7433 / 2147
Сообщения: 80216
Год выхода: 2001
Жанр: фэнтези, драма, мелодрама, комедия
Режиссер: Бобби Фаррелли, Питер Фаррелли
Выпущено: США, Германия
Продолжительность: 01:53:43
Перевод: Дублированный
В ролях: Гвинет Пэлтроу, Джек Блэк, Джейсон Александр, Джо Витерелли, Рене Кирби, Брюс МакГилл, Энтони Роббинс, Сьюзэн Уорд, Зен Геснер, Брук Бернс
[/list]

Сюжет фильма
    Для Хэла Ларсена начать длительные отношения с девушкой очень сложно, причем, виновата в этом даже не его не самая презентабельная внешность, а собственные чересчур завышенные запросы. Но жизнь Хэла меняется после неожиданной встречи в лифте - его случайный попутчик «открывает ему глаза», наделяя способностью видеть не внешнюю оболочку людей, а их внутреннюю красоту. Не подозревая о произошедшей с ним перемене, Хэл знакомится с Розмари, которая кажется ему настоящей красавицей, к тому же она умна, забавна и очень добра. Вот только окружающие вместо худенькой и стройной девушки видят необъятных размеров «слониху», под которой то и дело ломаются стулья...


Файл
    Качество: BDRip 1080p (исходник Blu-Ray)
    Формат: MKV
    Видео: 1920x1040, 8868 Кбит/сек, 23,976 кадр/сек, AVC, x264, High@L4.1, 1.85:1, 0.185 Бит/[Пиксели*Кадры]
    Аудио 1: AC-3, 448 Кбит/сек, 6 канала(ов), 48,0 КГц - Дублированный / Русский
    Аудио 2: AC-3, 448 Кбит/сек, 6 канала(ов), 48,0 КГц - Оригинал / Английский
    Субтитры: Русские | Полные, Английские | Полные
    Форсированные субтитры: Нет
    Чаптеры (Главы): Есть



Автор Рипа: Группа: Звуковые дорожки отдельно:


Format : Matroska
Format version : Version 2
File size : 7.74 GiB
Duration : 1 h 53 min
Overall bit rate : 9 749 kb/s
Movie name : Shallow Hal.(2001).BDRip.1080p.[envy]
Encoded date : UTC 2016-10-14 12:52:47
Writing application : mkvmerge v5.8.0 ('No Sleep / Pillow') built on Sep 2 2012 15:37:04
Writing library : libebml v1.2.3 + libmatroska v1.3.0
Video
ID : 1
Format : AVC
Format/Info : Advanced Video Codec
Format profile : High@L4.1
Format settings, CABAC : Yes
Format settings, ReFrames : 4 frames
Codec ID : V_MPEG4/ISO/AVC
Duration : 1 h 53 min
Bit rate : 8 868 kb/s
Width : 1 920 pixels
Height : 1 040 pixels
Display aspect ratio : 1.85:1
Frame rate mode : Constant
Frame rate : 23.976 (24000/1001) FPS
Color space : YUV
Chroma subsampling : 4:2:0
Bit depth : 8 bits
Scan type : Progressive
Bits/(Pixel*Frame) : 0.185
Stream size : 6.88 GiB (89%)
Title : Shallow Hal.(2001).BDRip.1080p.[envy]
Writing library : x264 core 148 r2721 72d53ab
Encoding settings : cabac=1 / ref=4 / deblock=1:-3:-3 / analyse=0x3:0x113 / me=umh / subme=11 / psy=1 / psy_rd=1.00:0.00 / mixed_ref=1 / me_range=32 / chroma_me=1 / trellis=2 / 8x8dct=1 / cqm=0 / deadzone=21,11 / fast_pskip=0 / chroma_qp_offset=-2 / threads=12 / lookahead_threads=1 / sliced_threads=0 / nr=0 / decimate=1 / interlaced=0 / bluray_compat=0 / constrained_intra=0 / bframes=6 / b_pyramid=2 / b_adapt=2 / b_bias=0 / direct=3 / weightb=1 / open_gop=0 / weightp=2 / keyint=240 / keyint_min=23 / scenecut=40 / intra_refresh=0 / rc=2pass / mbtree=0 / bitrate=8868 / ratetol=2.0 / qcomp=0.60 / qpmin=0 / qpmax=69 / qpstep=4 / cplxblur=20.0 / qblur=0.5 / ip_ratio=1.40 / pb_ratio=1.30 / aq=2:0.80
Language : English
Default : Yes
Forced : No
Audio #1
ID : 2
Format : AC-3
Format/Info : Audio Coding 3
Mode extension : CM (complete main)
Format settings, Endianness : Big
Codec ID : A_AC3
Duration : 1 h 53 min
Bit rate mode : Constant
Bit rate : 448 kb/s
Channel(s) : 6 channels
Channel positions : Front: L C R, Side: L R, LFE
Sampling rate : 48.0 kHz
Frame rate : 31.250 FPS (1536 spf)
Compression mode : Lossy
Stream size : 364 MiB (5%)
Title : Dub
Language : Russian
Default : Yes
Forced : No
Audio #2
ID : 3
Format : AC-3
Format/Info : Audio Coding 3
Mode extension : CM (complete main)
Format settings, Endianness : Big
Codec ID : A_AC3
Duration : 1 h 53 min
Bit rate mode : Constant
Bit rate : 448 kb/s
Channel(s) : 6 channels
Channel positions : Front: L C R, Side: L R, LFE
Sampling rate : 48.0 kHz
Frame rate : 31.250 FPS (1536 spf)
Compression mode : Lossy
Stream size : 364 MiB (5%)
Title : Eng
Language : English
Default : No
Forced : No
Text #1
ID : 4
Format : UTF-8
Codec ID : S_TEXT/UTF8
Codec ID/Info : UTF-8 Plain Text
Title : Rus full
Language : Russian
Default : No
Forced : No
Text #2
ID : 5
Format : UTF-8
Codec ID : S_TEXT/UTF8
Codec ID/Info : UTF-8 Plain Text
Title : Eng full PSDH
Language : English
Default : No
Forced : No
Menu
00:00:00.000 : :Chapter 01
00:04:21.552 : :Chapter 02
00:06:33.101 : :Chapter 03
00:08:44.190 : :Chapter 04
00:10:11.819 : :Chapter 05
00:12:08.686 : :Chapter 06
00:17:32.176 : :Chapter 07
00:21:18.777 : :Chapter 08
00:27:11.254 : :Chapter 09
00:31:58.082 : :Chapter 10
00:35:05.144 : :Chapter 11
00:38:18.546 : :Chapter 12
00:41:55.596 : :Chapter 13
00:44:51.063 : :Chapter 14
00:48:30.657 : :Chapter 15
00:53:33.710 : :Chapter 16
00:56:12.827 : :Chapter 17
01:01:26.599 : :Chapter 18
01:04:30.116 : :Chapter 19
01:06:55.678 : :Chapter 20
01:10:14.668 : :Chapter 21
01:16:46.685 : :Chapter 22
01:20:02.422 : :Chapter 23
01:23:42.475 : :Chapter 24
01:28:33.516 : :Chapter 25
01:32:24.372 : :Chapter 26
01:39:22.748 : :Chapter 27
01:45:47.049 : :Chapter 28



_________________
Проголосуй за трекер Открытый торрент трекер - RUS-MEDIA.ORG

Проголосуй Открытый торрент трекер - RUS-MEDIA.ORG


Вернуться к началу
 Профиль Отправить личное сообщение  
 
   Похожие торренты   Автор   Торрент   Размер 
В этой теме нет новых непрочитанных сообщений. Ускользающая любовь / L'amour en fuite [драма, мелодрама, комедия, 1979] BDRip 1080p, Mvo

salma3

0 | 1

8.71 ГБ

В этой теме нет новых непрочитанных сообщений. Реальная любовь / Love Actually [мелодрама, комедия, драма, 2003] BDRip HEVC 1080p, Dub

salma3

28 | 25

10.24 ГБ

В этой теме нет новых непрочитанных сообщений. Любовь с ограничениями [комедия, мелодрама, 2016] BDRip 1080p [Лицензия]

salma3

30 | 4

5.83 ГБ

В этой теме нет новых непрочитанных сообщений. Любовь с первого взгляда / Two Night Stand [мелодрама, комедия, 2014] BDRip 1080p, Mvo

salma3

82 | 21

6.82 ГБ

В этой теме нет новых непрочитанных сообщений. Корпорация монстров / Monsters, Inc. [Фэнтези, комедия, приключения, 2001] BDRip 1080p, Dub [3D-Video]

salma3

0 | 0

8.67 ГБ

В этой теме нет новых непрочитанных сообщений. Шрек: Квадрология / Shrek: Quadrilogy [мультфильм, фэнтези, комедия, 2001-2010] BDRip-HEVC 1080p, Dub

salma3

10 | 2

14.26 ГБ

В этой теме нет новых непрочитанных сообщений. Сердцеедки / Heartbreakers [мелодрама, комедия, криминал, 2001] BDRip-HEVC 1080p, Dub

salma3

10 | 2

5.08 ГБ


Начать новую тему Ответить на тему  [ 1 сообщение ] 




Для Мосгорсуда, Роскомнадзора и рекламодателей:: mosgorsud-torrent[собачка]yandex.ru
cron