Торрент файл
скачать торрент магнет ссылка Добавлен: 02 ноя 2016, 12:21
Размер: 16.85 ГБ
Сидеров: 54
Личеров: 31
Статус: (salma3)
Автор

СообщениеДобавлено: 02 ноя 2016, 12:21 

Не в сети
Супермодератор
Аватара пользователя
Дата регистрации:
15 фев 2012, 16:44
Возраст: 29
Спасибо: 7434 / 2147
Сообщения: 80293
Год выпуска: 2006
Жанр: мелодрама, комедия
Выпущено: США
Режиссер: Грег Кулидж
В ролях: Дейн Кук , Джессика Симпсон , Дэкс Шепард , Энди Дик , Тим Бэгли , Брайан Джордж , Эфрен Рамирез , Марселло Тедфорд , Дэнни Вудберн , Харланд Уильямс , Шон Уэйлен , Барбара Додд
Перевод: Дублированный


Сюжет фильма:
Вся мужская половина магазина, где работают Зак и Винс, сходит с ума по новой сотруднице - обворожительной кассирше Эмми. Но как обратить на себя внимание этой ослепительной блондинки? Есть только один беспроигрышный вариант: получить почетное звание «Сотрудника месяца». Для достижения вожделенной цели Зак и Винс приложат все усилия, что станет причиной множества комичных ситуаций и забавных происшествий. Так кому же достанется сердце красавицы?



Качество: BD Remux
Контейнер (Расширение): MKV
Видео: MPEG-4 AVC Video / 17745 kbps / 1080p / 23.976 fps / 16:9 / High Profile 4.1
Аудио №1: AC3 / 5.1 / 48 kHz / 448 kbps / |Дублированный|
Аудио №2: DTS-HD High-Res Audio / 6.1 / 48 kHz / 3039 kbps / 24 bit (DTS Core: 6.1-ES / 48 kHz / 1509 kbps / 24-bit / DN -4dB)
Аудио №3: Dolby Digital EX Audio / 5.1-EX / 48 kHz / 640 kbps / DN -4dB
Субтитры: русские, английские
Навигация по главам(Чаптеры): есть
Продолжительность: 01:48:07
Релиз от: Группа:

Format : Matroska
Format version : Version 2
File size : 16.9 GiB
Duration : 1 h 48 min
Overall bit rate : 22.3 Mb/s
Movie name : Employee of the Month.2006.BDRemux.1080p.[denis100]
Encoded date : UTC 2016-11-01 06:51:59
Writing application : mkvmerge v5.8.0 ('No Sleep / Pillow') built on Sep 2 2012 15:37:04
Writing library : libebml v1.2.3 + libmatroska v1.3.0
Video
ID : 1
Format : AVC
Format/Info : Advanced Video Codec
Format profile : High@L4.1
Format settings, CABAC : Yes
Format settings, ReFrames : 3 frames
Format settings, GOP : M=3, N=24
Codec ID : V_MPEG4/ISO/AVC
Duration : 1 h 48 min
Bit rate : 17.7 Mb/s
Width : 1 920 pixels
Height : 1 080 pixels
Display aspect ratio : 16:9
Frame rate mode : Constant
Frame rate : 23.976 (24000/1001) FPS
Color space : YUV
Chroma subsampling : 4:2:0
Bit depth : 8 bits
Scan type : Progressive
Bits/(Pixel*Frame) : 0.357
Stream size : 13.4 GiB (80%)
Title : Employee of the Month.2006.BDRemux.1080p.[denis100]
Language : English
Default : Yes
Forced : No
Audio #1
ID : 2
Format : AC-3
Format/Info : Audio Coding 3
Mode extension : CM (complete main)
Format settings, Endianness : Big
Codec ID : A_AC3
Duration : 1 h 48 min
Bit rate mode : Constant
Bit rate : 448 kb/s
Channel(s) : 6 channels
Channel positions : Front: L C R, Side: L R, LFE
Sampling rate : 48.0 kHz
Frame rate : 31.250 FPS (1536 spf)
Compression mode : Lossy
Delay relative to video : -9 ms
Stream size : 346 MiB (2%)
Title : Дублированный
Language : Russian
Default : Yes
Forced : No
Audio #2
ID : 3
Format : DTS
Format/Info : Digital Theater Systems
Format profile : HRA / ES Discrete / Core
Mode : 16
Format settings, Endianness : Big
Codec ID : A_DTS
Duration : 1 h 48 min
Bit rate mode : Constant
Bit rate : 3 039 kb/s / 1 509 kb/s / 1 509 kb/s
Channel(s) : 7 channels / 7 channels / 6 channels
Channel positions : Front: L C R, Side: L R, Back: C, LFE / Front: L C R, Side: L R, Back: C, LFE / Front: L C R, Side: L R, LFE
Sampling rate : 48.0 kHz
Frame rate : 93.750 FPS (512 spf)
Bit depth : 24 bits
Compression mode : Lossy
Delay relative to video : -9 ms
Stream size : 2.30 GiB (14%)
Language : English
Default : No
Forced : No
Audio #3
ID : 4
Format : AC-3
Format/Info : Audio Coding 3
Mode extension : CM (complete main)
Format settings, Endianness : Big
Codec ID : A_AC3
Duration : 1 h 48 min
Bit rate mode : Constant
Bit rate : 640 kb/s
Channel(s) : 6 channels
Channel positions : Front: L C R, Side: L R, LFE
Sampling rate : 48.0 kHz
Frame rate : 31.250 FPS (1536 spf)
Compression mode : Lossy
Stream size : 495 MiB (3%)
Language : English
Default : No
Forced : No
Text #1
ID : 5
Format : UTF-8
Codec ID : S_TEXT/UTF8
Codec ID/Info : UTF-8 Plain Text
Language : Russian
Default : No
Forced : No
Text #2
ID : 6
Format : UTF-8
Codec ID : S_TEXT/UTF8
Codec ID/Info : UTF-8 Plain Text
Language : English
Default : No
Forced : No
Menu
00:00:00.000 : en:Chapter 01
00:02:36.865 : en:Chapter 03
00:06:10.953 : en:Chapter 04
00:08:24.921 : en:Chapter 05
00:09:03.918 : en:Chapter 06
00:14:03.425 : en:Chapter 07
00:18:10.130 : en:Chapter 08
00:21:18.193 : en:Chapter 09
00:23:45.674 : en:Chapter 10
00:26:24.666 : en:Chapter 11
00:27:56.549 : en:Chapter 12
00:31:37.311 : en:Chapter 13
00:32:36.204 : en:Chapter 14
00:33:58.161 : en:Chapter 15
00:35:46.519 : en:Chapter 16
00:38:16.377 : en:Chapter 17
00:41:21.937 : en:Chapter 18
00:43:17.803 : en:Chapter 19
00:49:04.399 : en:Chapter 20
00:52:19.803 : en:Chapter 21
00:55:02.757 : en:Chapter 22
00:56:50.490 : en:Chapter 23
01:00:06.394 : en:Chapter 24
01:04:44.004 : en:Chapter 25
01:07:09.358 : en:Chapter 26
01:10:11.331 : en:Chapter 27
01:13:17.643 : en:Chapter 28
01:19:58.877 : en:Chapter 29
01:21:40.395 : en:Chapter 30
01:25:13.024 : en:Chapter 31
01:27:24.238 : en:Chapter 32
01:29:42.835 : en:Chapter 33
01:31:33.738 : en:Chapter 34
01:36:43.297 : en:Chapter 35
01:42:08.580 : en:Chapter 36
01:48:07.313 : en:Chapter 37







_________________
Проголосуй за трекер Открытый торрент трекер - RUS-MEDIA.ORG

Проголосуй Открытый торрент трекер - RUS-MEDIA.ORG


Вернуться к началу
 Профиль Отправить личное сообщение  
 
   Похожие торренты   Автор   Торрент   Размер 
В этой теме нет новых непрочитанных сообщений. Свидание вслепую / Blind Dating [мелодрама, комедия, 2006] BDRip-AVC, Dub

salma3

96 | 24

2.11 ГБ

В этой теме нет новых непрочитанных сообщений. Свидание со смертью / Appointment with Death [триллер, драма, криминал, 1988] BDRemux 1080p, Mvo

salma3

0 | 0

25.01 ГБ

В этой теме нет новых непрочитанных сообщений. Свидание на одну ночь / One Night Stand [Мелодрама, 1997] WEB-DL 1080p, Mvo+Dvo+Sub

salma3

0 | 7

7.4 ГБ

В этой теме нет новых непрочитанных сообщений. Иллюзионист / The Illusionist [триллер, драма, мелодрама, 2006] BDRemux 1080p, Dub

salma3

0 | 0

24.01 ГБ

В этой теме нет новых непрочитанных сообщений. Фонтан / The Fountain [Фантастика, драма, мелодрама, 2006] BDRemux 1080p, Dub

salma3

0 | 0

29.16 ГБ

В этой теме нет новых непрочитанных сообщений. Свадьба моей любимой / Mere Yaar Ki Shaadi Hai [Мюзикл, драма, мелодрама, комедия, 2002] BDRip 1080p, Mvo

salma3

4 | 3

13.99 ГБ

В этой теме нет новых непрочитанных сообщений. Это не свидание / It's Not a Date [драма, мелодрама, комедия, 2014] WEB-DLRip, Mvo

salma3

164 | 12

1.46 ГБ


Начать новую тему Ответить на тему  [ 1 сообщение ] 




Для Мосгорсуда, Роскомнадзора и рекламодателей:: mosgorsud-torrent[собачка]yandex.ru
cron