Торрент файл
скачать торрент магнет ссылка Добавлен: 19 ноя 2016, 12:46
Размер: 10.89 ГБ
Сидеров: 116
Личеров: 41
Статус: (salma3)
Автор

СообщениеДобавлено: 19 ноя 2016, 12:46 

В сети
Супермодератор
Аватара пользователя
Дата регистрации:
15 фев 2012, 16:44
Возраст: 29
Спасибо: 7434 / 2147
Сообщения: 80280
Год выхода: 2012
Жанр: фантастика, боевик, триллер, приключения
Режиссер: Джозеф Дж. Лосон

В ролях: Доминик Суэйн, Джейк Бьюзи, Джош Аллен, Кристофер Карл Джонсон, Джеймс Максвелл Янг, Лилан Боуден, Марлен Окнер, Адам Берч, Мария Паллас, Абдеррахим Халаймиа

О фильме: Учёные, прибывшие в Антарктиду, оказываются похищенными группой людей в масках, которые увлекают их под Землю. Герои оказываются на подземном континенте, являющимся оплотом нацистов, которым, казалось бы, пришёл конец во время второй мировой войны. Их тела состоят из разрушенной и восстанавливающейся плоти и в их планах возрождение Третьего рейха…



Страна: США
Продолжительность: 01:29:38
Перевод: Перевод 1: Профессиональный (многоголосый закадровый) R5
Перевод 2: Одноголосый закадровый magnumst (по субтитрам musbob)
Cубтитры: русские (R5), английские (fansub) (отдельно, на ФО)
Оригинальная аудиодорожка: английский
Файл
Качество: BDRemux 1080p
Видео: MPEG2, 1920x1080 (16:9) at 23,976 fps, ~15001 Кbps, 0.304 bpp
Аудио 1: AC3; 192 Kbps; CBR; 2 ch; 48 khz | P, MVO - R5 |
Аудио 2: AC3; 192 Kbps; CBR; 2 ch; 48 khz | VO - magnumst |
Аудио 3: DTS HDMA; 2006 Kbps; VBR; 6 ch; 48 khz; 16 bit | Английский | (DTS Core: 5.1 / 48 kHz / 1509 kbps / 16-bit)

Общее
Уникальный идентификатор : 237517231716442540755445726467581003780 (0xB2B027A6ADC25A8D968B33173693C804)
Полное имя : Нацисты в центре Земли.2012.P.1080p.BluRay.Remux.MPEG2-LeetHD.mkv
Формат : Matroska
Версия формата : Version 4 / Version 2
Размер файла : 10,9 Гбайт
Продолжительность : 1 ч. 29 м.
Режим общего битрейта : Переменный
Общий поток : 17,4 Мбит/сек
Название фильма : profile.php?mode=viewprofile&u=22488948
Дата кодирования : UTC 2013-01-31 15:03:19
Программа кодирования : mkvmerge v6.0.0 ('Coming Up For Air') built on Jan 20 2013 09:52:00
Библиотека кодирования : libebml v1.3.0 + libmatroska v1.4.0
Видео
Идентификатор : 1
Формат : MPEG Video
Версия формата : Version 2
Профиль формата : Main@High
Параметр BVOP формата : Нет
Параметр матрицы формата : Выборочная
Идентификатор кодека : V_MPEG2
Идентификатор кодека/Информация : MPEG 1 or 2 Video
Продолжительность : 1 ч. 29 м.
Вид битрейта : Переменный
Битрейт : 15,1 Мбит/сек
Максимальный битрейт : 25,0 Мбит/сек
Ширина : 1920 пикселей
Высота : 1080 пикселей
Соотношение сторон : 16:9
Частота кадров : 23,976 кадра/сек
Стандарт вещания : Component
Цветовое пространство : YUV
Субдискретизация насыщенности : 4:2:0
Битовая глубина : 8 бит
Тип развёртки : Прогрессивная
Метод сжатия : С потерями
Бит/(Пиксели*Кадры) : 0.304
Размер потока : 9,46 Гбайт (87%)
Заголовок : MPEG2 / ~15,001 kbps / 1080p / 23.976 fps / 16:9 / Main@High
Язык : English
Default : Да
Forced : Нет
Основные цвета : BT.709
Характеристики трансфера : BT.709
Коэффициенты матрицы : BT.709
Аудио #1
Идентификатор : 2
Формат : AC-3
Формат/Информация : Audio Coding 3
Расширение режима : CM (complete main)
Идентификатор кодека : A_AC3
Продолжительность : 1 ч. 29 м.
Вид битрейта : Постоянный
Битрейт : 192 Кбит/сек
Каналы : 2 канала
Расположение каналов : Front: L R
Частота : 48,0 КГц
Битовая глубина : 16 бит
Метод сжатия : С потерями
Размер потока : 123 Мбайт (1%)
Заголовок : P, MVO [R5]
Язык : Russian
Default : Да
Forced : Нет
Аудио #2
Идентификатор : 3
Формат : AC-3
Формат/Информация : Audio Coding 3
Расширение режима : CM (complete main)
Идентификатор кодека : A_AC3
Продолжительность : 1 ч. 29 м.
Вид битрейта : Постоянный
Битрейт : 192 Кбит/сек
Каналы : 2 канала
Расположение каналов : Front: L R
Частота : 48,0 КГц
Битовая глубина : 16 бит
Метод сжатия : С потерями
Размер потока : 123 Мбайт (1%)
Заголовок : VO [magnumst]
Язык : Russian
Default : Нет
Forced : Нет
Аудио #3
Идентификатор : 4
Формат : DTS
Формат/Информация : Digital Theater Systems
Профиль формата : MA / Core
Идентификатор кодека : A_DTS
Продолжительность : 1 ч. 29 м.
Вид битрейта : Переменный
Битрейт : 1561 Кбит/сек / 1510 Кбит/сек
Каналы : 6 каналов
Расположение каналов : Front: L C R, Side: L R, LFE
Частота : 48,0 КГц
Битовая глубина : 16 бит
Метод сжатия : Без потерь / Lossy
Заголовок : 5.1 / 48 kHz / 2006 kbps / 16-bit (DTS Core: 5.1 / 48 kHz / 1509 kbps / 16-bit)
Язык : English
Default : Нет
Forced : Нет
Текст
Идентификатор : 5
Формат : UTF-8
Идентификатор кодека : S_TEXT/UTF8
Идентификатор кодека/Информация : UTF-8 Plain Text
Заголовок : R5
Язык : Russian
Default : Нет
Forced : Нет
Меню
00:00:00.000 : en:00:00:00.000
00:04:25.265 : en:00:04:25.265
00:09:58.598 : en:00:09:58.598
00:14:32.372 : en:00:14:32.372
00:24:34.974 : en:00:24:34.974
00:31:52.411 : en:00:31:52.411
00:43:38.616 : en:00:43:38.616
00:50:05.002 : en:00:50:05.002
00:59:07.544 : en:00:59:07.544
01:08:18.595 : en:01:08:18.595
01:15:31.027 : en:01:15:31.027
01:21:59.415 : en:01:21:59.415
01:29:37.873 : en:01:29:37.873


_________________
Проголосуй за трекер Открытый торрент трекер - RUS-MEDIA.ORG

Проголосуй Открытый торрент трекер - RUS-MEDIA.ORG


Вернуться к началу
 Профиль Отправить личное сообщение  
 
   Похожие торренты   Автор   Торрент   Размер 
В этой теме нет новых непрочитанных сообщений. Нацисты в центре Земли / Nazis at the Center of the Earth [фантастика, боевик, триллер, приключения, 2012] BDRip-AVC, Mvo

salma3

98 | 14

1.45 ГБ

В этой теме нет новых непрочитанных сообщений. Нацисты в центре Земли / Nazis at the Center of the Earth [фантастика, боевик, триллер, приключения, 2012] BDRip 720p, Mvo

salma3

50 | 6

3.93 ГБ

В этой теме нет новых непрочитанных сообщений. Завоевание Земли / Conquest of the Earth [Фантастика, боевик, приключения, 1981] HDTVRip 1080p, Avo

salma3

0 | 0

5.02 ГБ

В этой теме нет новых непрочитанных сообщений. Нацисты-серфингисты должны умереть / Surf Nazis Must Die [боевик, комедия, драма, 1987] BDRip 720p, Dvo

salma3

0 | 1

5.3 ГБ

В этой теме нет новых непрочитанных сообщений. Поле битвы: Земля / Battlefield Earth: A Saga of the Year 3000 [фантастика, боевик, приключения, 2000] BDRemux 1080p, Avo

salma3

23 | 11

17.99 ГБ

В этой теме нет новых непрочитанных сообщений. Человек с Земли / The Man from Earth [Фантастика, драма, 2007] BDRip 1080p, Mvo

salma3

0 | 8

8.28 ГБ

В этой теме нет новых непрочитанных сообщений. В центре внимания / Spotlight [триллер, драма, биография, история, 2015] BDRemux 1080p, MVO

salma3

26 | 7

33.2 ГБ


Начать новую тему Ответить на тему  [ 1 сообщение ] 




Для Мосгорсуда, Роскомнадзора и рекламодателей:: mosgorsud-torrent[собачка]yandex.ru
cron