Торрент файл
скачать торрент магнет ссылка Добавлен: 04 дек 2016, 01:41
Размер: 7.06 ГБ
Сидеров: 82
Личеров: 25
Статус: (salma3)
Автор

СообщениеДобавлено: 04 дек 2016, 01:41 

В сети
Супермодератор
Аватара пользователя
Дата регистрации:
15 фев 2012, 16:44
Возраст: 29
Спасибо: 7400 / 2147
Сообщения: 78259
Год выхода: 1992
Жанр: Боевик, боевые искусства
Режиссер: Патрик Аллен

В ролях: Боло Йенг, Мэриам д’Або, Уильям Забка, Майкл Бернардо, Сигал Дайэмант, Мартин Коув, Эдвард Альберт, Джеймс Пак, Лэнг Юнг

О фильме:
Два друга, ученики мастера Шинго, приехали на подпольный турнир бойцов, поединки которого ведутся до смертельного исхода. Драматически складывается не только ход турнира, но и взаимоотношения друзей. Но на ринг выходит мастер Шинго…

Страна: США
Продолжительность: 01:35:35
Перевод:
1. Профессиональный двухголосый закадровый (Рен ТВ)
2. Авторский одноголосый закадровый (Дольский)
3. Авторский одноголосый закадровый (Горчаков)
4. Авторский одноголосый закадровый (Визгунов)
Файл
Кодек: x264, AVC
Качество: BDRip 1080p
Видео: 1920x1080, 9602 kbps, 23,976 fps
Звук:
1. AC3, 192 kbps, 48 KHz, 2 channels
2. AC3, 192 kbps, 48 KHz, 2 channels
3. AC3, 192 kbps, 48 KHz, 2 channels
4. AC3, 192 kbps, 48 KHz, 2 channels
General
Unique ID : 210206205852890718369590593900178412317 (0x9E243E1D50A1F9C49EE06E87B089931D)
Complete name : Сильнейший удар [Shootfighter, 1992] 1080p.mkv
Format : Matroska
Format version : Version 2
File size : 7.06 GiB
Duration : 1 h 35 min
Overall bit rate : 10.6 Mb/s
Movie name : Shootfighter. Fight to the Death (1993) by Freak Chaos
Encoded date : UTC 2016-11-29 17:37:25
Writing application : mkvmerge v4.2.0 ('No Talking') сборка от Jul 28 2010 18:38:23
Writing library : libebml v1.0.0 + libmatroska v1.0.0
Video
ID : 1
Format : AVC
Format/Info : Advanced Video Codec
Format profile : High@L4.1
Format settings, CABAC : Yes
Format settings, ReFrames : 4 frames
Muxing mode : Header stripping
Codec ID : V_MPEG4/ISO/AVC
Duration : 1 h 35 min
Bit rate : 9 602 kb/s
Width : 1 920 pixels
Height : 1 080 pixels
Display aspect ratio : 16:9
Frame rate mode : Constant
Frame rate : 23.976 (24000/1001) FPS
Color space : YUV
Chroma subsampling : 4:2:0
Bit depth : 8 bits
Scan type : Progressive
Bits/(Pixel*Frame) : 0.193
Stream size : 6.41 GiB (91%)
Title : Shootfighter. Fight to the Death (1993)
Default : Yes
Forced : No
Audio #1
ID : 2
Format : AC-3
Format/Info : Audio Coding 3
Mode extension : CM (complete main)
Format settings, Endianness : Big
Muxing mode : Header stripping
Codec ID : A_AC3
Duration : 1 h 35 min
Bit rate mode : Constant
Bit rate : 192 kb/s
Channel(s) : 2 channels
Channel positions : Front: L R
Sampling rate : 48.0 kHz
Frame rate : 31.250 FPS (1536 spf)
Compression mode : Lossy
Stream size : 131 MiB (2%)
Title : Двухголосый (Рен ТВ)
Language : Russian
Default : Yes
Forced : No
Audio #2
ID : 3
Format : AC-3
Format/Info : Audio Coding 3
Format profile : Dolby Digital
Mode extension : CM (complete main)
Format settings, Endianness : Big
Muxing mode : Header stripping
Codec ID : A_AC3
Duration : 1 h 35 min
Bit rate mode : Constant
Bit rate : 192 kb/s
Channel(s) : 2 channels
Channel positions : Front: L R
Sampling rate : 48.0 kHz
Frame rate : 31.250 FPS (1536 spf)
Compression mode : Lossy
Stream size : 131 MiB (2%)
Title : Дольский
Language : Russian
Default : No
Forced : No
Audio #3
ID : 4
Format : AC-3
Format/Info : Audio Coding 3
Mode extension : CM (complete main)
Format settings, Endianness : Big
Muxing mode : Header stripping
Codec ID : A_AC3
Duration : 1 h 35 min
Bit rate mode : Constant
Bit rate : 192 kb/s
Channel(s) : 2 channels
Channel positions : Front: L R
Sampling rate : 48.0 kHz
Frame rate : 31.250 FPS (1536 spf)
Compression mode : Lossy
Stream size : 131 MiB (2%)
Title : Горчаков
Language : Russian
Default : No
Forced : No
Audio #4
ID : 5
Format : AC-3
Format/Info : Audio Coding 3
Mode extension : CM (complete main)
Format settings, Endianness : Big
Muxing mode : Header stripping
Codec ID : A_AC3
Duration : 1 h 35 min
Bit rate mode : Constant
Bit rate : 192 kb/s
Channel(s) : 2 channels
Channel positions : Front: L R
Sampling rate : 48.0 kHz
Frame rate : 31.250 FPS (1536 spf)
Compression mode : Lossy
Stream size : 131 MiB (2%)
Title : Визгунов
Language : Russian
Default : No
Forced : No


_________________
Проголосуй за трекер Открытый торрент трекер - RUS-MEDIA.ORG

Проголосуй Открытый торрент трекер - RUS-MEDIA.ORG


Вернуться к началу
 Профиль Отправить личное сообщение  
 
   Похожие торренты   Автор   Торрент   Размер 
В этой теме нет новых непрочитанных сообщений. Сильнейший удар: Бой до смерти / Shootfighter: Fight to the Death [Боевик, 1992] BDRip 720p, Dvo [Рен ТВ]

salma3

0 | 0

3.6 ГБ

В этой теме нет новых непрочитанных сообщений. Сильнейший удар: Бой до смерти / Shootfighter: Fight to the Death [боевик, 1992] DVDRip, Dvo [Рен ТВ]

salma3

64 | 4

1.46 ГБ

В этой теме нет новых непрочитанных сообщений. Моли о смерти / Pray for Death [Боевик, боевые искусства, 1985] BDRip 1080p, Dvo+Avo

salma3

15 | 13

6.12 ГБ

В этой теме нет новых непрочитанных сообщений. Сильнейший удар 2 / Shootfighter II [боевик, 1996] HDRip-AVC, Mvo

salma3

34 | 21

2.17 ГБ

В этой теме нет новых непрочитанных сообщений. Сильнейший удар 2 / Shootfighter II [Боевик, 1996] HDRip, Mvo

salma3

0 | 0

698.6 МБ

В этой теме нет новых непрочитанных сообщений. Сильнейший удар 2 / Shootfighter II [боевик, 1996] HDRip, Avo [Гаврилов]

salma3

104 | 50

1.46 ГБ

В этой теме нет новых непрочитанных сообщений. Рука смерти / Shao Lin men [Боевик, боевые искусства, 1976] BDRip 1080p, Mvo

salma3

13 | 8

6.57 ГБ


Начать новую тему Ответить на тему  [ 1 сообщение ] 




Для Мосгорсуда, Роскомнадзора и рекламодателей:: mosgorsud-torrent[собачка]yandex.ru
cron