Торрент файл
скачать торрент магнет ссылка Добавлен: 25 дек 2016, 21:57
Размер: 5.59 ГБ
Сидеров: 152
Личеров: 61
Статус: (salma3)
Автор

СообщениеДобавлено: 25 дек 2016, 21:57 

Не в сети
Супермодератор
Аватара пользователя
Дата регистрации:
15 фев 2012, 16:44
Возраст: 29
Спасибо: 7433 / 2147
Сообщения: 80216
Год выхода: 2012
Страна: Великобритания
Студия: WestEnd Films, Ecosse Films, Notting Hill Films
Продолжительность: 01:30:38
Жанр: комедия, фэнтези, ужасы

Режиссер: Энди де Эммони
В ролях: Джессика Зор, Эдвард Спелирс, Люк Паскуалино, Адам Лиз, Кирстон Вэрэйнг, Роберт Пью, Тимоти Сполл, Робин Мориссей, Пол Бирчард, Кейт Суини, ...

Перевод:
- Профессиональный (многоголосный, закадровый) ?
- Любительский (двухголосый, закадровый) ?

О фильме: Джейми живёт в глухом приморском городке, откуда мечтает выбраться. Однажды на вечеринке появляется американка Джулиана. Она умна и совсем не похожа на местных. Но одновременно с её появлением в городе начинают пропадать подростки. Загадочный мужчина предупреждает Джейми — держись от этой девушки подальше, особенно если ты девственник…



Кодек: x264
Качество: BDRip 1080p
Видео: 1920x816 , 8000 kbps, 24 fps
Аудио #1: AC-3, 2 ch, 192 kbps (Rus) - MVO
Аудио #2: AC-3, 6 ch, 448 kbps (Rus) - DVOL
Аудио #3: AC-3, 2 ch, 192 kbps (Eng)
Субтитры: Английские

x264 [info]: frame I:1084 Avg QP:13.34 size:199250
x264 [info]: frame P:28425 Avg QP:16.39 size: 77265
x264 [info]: frame B:101018 Avg QP:18.93 size: 29920
x264 [info]: consecutive B-frames: 2.7% 3.9% 9.3% 15.2% 14.4% 28.7% 12.6% 11.8% 1.0% 0.2% 0.2%

Общее
Уникальный идентификатор : 196939980253399003619176371485345374379 (0x942942B18CEBC323A54703E00630E0AB)
Полное имя : Девственники, берегитесь! (Love Bite) 2012 BDRip 1080p.mkv
Формат : Matroska
Версия формата : Version 2
Размер файла : 5,59 Гбайт
Продолжительность : 1 ч. 30 м.
Общий поток : 8829 Кбит/сек
Дата кодирования : UTC 2016-12-22 09:47:45
Программа кодирования : mkvmerge v4.0.0 ('The Stars were mine') сборка от Jun 6 2010 16:18:42
Библиотека кодирования : libebml v1.0.0 + libmatroska v1.0.0

Видео
Идентификатор : 1
Формат : AVC
Формат/Информация : Advanced Video Codec
Профиль формата : High@L4.1
Параметр CABAC формата : Да
Параметр ReFrames формата : 5 кадров
Идентификатор кодека : V_MPEG4/ISO/AVC
Продолжительность : 1 ч. 30 м.
Битрейт : 8000 Кбит/сек
Ширина : 1920 пикселей
Высота : 816 пикселей
Соотношение сторон : 2,35:1
Режим частоты кадров : Постоянный
Частота кадров : 24,000 кадра/сек
Цветовое пространство : YUV
Субдискретизация насыщенности : 4:2:0
Битовая глубина : 8 бит
Тип развёртки : Прогрессивная
Бит/(Пиксели*Кадры) : 0.213
Размер потока : 4,95 Гбайт (89%)
Библиотека кодирования : x264 core 146 r2538 121396c
Настройки программы : cabac=1 / ref=5 / deblock=1:-3:-3 / analyse=0x3:0x133 / me=umh / subme=11 / psy=1 / psy_rd=1.00:0.00 / mixed_ref=1 / me_range=32 / chroma_me=1 / trellis=2 / 8x8dct=1 / cqm=0 / deadzone=21,11 / fast_pskip=0 / chroma_qp_offset=-2 / threads=12 / lookahead_threads=2 / sliced_threads=0 / nr=0 / decimate=0 / interlaced=0 / bluray_compat=0 / constrained_intra=0 / bframes=10 / b_pyramid=2 / b_adapt=2 / b_bias=0 / direct=3 / weightb=1 / open_gop=0 / weightp=2 / keyint=240 / keyint_min=24 / scenecut=40 / intra_refresh=0 / rc=2pass / mbtree=0 / bitrate=8000 / ratetol=1.0 / qcomp=0.60 / qpmin=0 / qpmax=69 / qpstep=4 / cplxblur=20.0 / qblur=0.5 / ip_ratio=1.40 / pb_ratio=1.30 / aq=1:0.80
Язык : English
Default : Нет
Forced : Нет

Аудио #1
Идентификатор : 2
Формат : AC-3
Формат/Информация : Audio Coding 3
Расширение режима : CM (complete main)
Параметр Endianness формата : Big
Идентификатор кодека : A_AC3
Продолжительность : 1 ч. 30 м.
Вид битрейта : Постоянный
Битрейт : 192 Кбит/сек
Каналы : 2 канала
Расположение каналов : Front: L R
Частота : 48,0 КГц
Частота кадров : 31,250 кадров/сек (1536 spf)
Метод сжатия : С потерями
Размер потока : 124 Мбайт (2%)
Заголовок : MVO
Язык : Russian
Default : Нет
Forced : Нет

Аудио #2
Идентификатор : 3
Формат : AC-3
Формат/Информация : Audio Coding 3
Расширение режима : CM (complete main)
Параметр Endianness формата : Big
Идентификатор кодека : A_AC3
Продолжительность : 1 ч. 30 м.
Вид битрейта : Постоянный
Битрейт : 448 Кбит/сек
Каналы : 6 каналов
Расположение каналов : Front: L C R, Side: L R, LFE
Частота : 48,0 КГц
Частота кадров : 31,250 кадров/сек (1536 spf)
Метод сжатия : С потерями
Размер потока : 290 Мбайт (5%)
Заголовок : DVOL
Язык : Russian
Default : Нет
Forced : Нет

Аудио #3
Идентификатор : 4
Формат : AC-3
Формат/Информация : Audio Coding 3
Расширение режима : CM (complete main)
Параметр Endianness формата : Big
Идентификатор кодека : A_AC3
Продолжительность : 1 ч. 30 м.
Вид битрейта : Постоянный
Битрейт : 192 Кбит/сек
Каналы : 2 канала
Расположение каналов : Front: L R
Частота : 48,0 КГц
Частота кадров : 31,250 кадров/сек (1536 spf)
Метод сжатия : С потерями
Размер потока : 124 Мбайт (2%)
Язык : English
Default : Нет
Forced : Нет

Текст #1
Идентификатор : 5
Формат : UTF-8
Идентификатор кодека : S_TEXT/UTF8
Идентификатор кодека/Информация : UTF-8 Plain Text
Язык : English
Default : Нет
Forced : Нет

Текст #2
Идентификатор : 6
Формат : UTF-8
Идентификатор кодека : S_TEXT/UTF8
Идентификатор кодека/Информация : UTF-8 Plain Text
Заголовок : SDH
Язык : English
Default : Нет
Forced : Нет



_________________
Проголосуй за трекер Открытый торрент трекер - RUS-MEDIA.ORG

Проголосуй Открытый торрент трекер - RUS-MEDIA.ORG


Вернуться к началу
 Профиль Отправить личное сообщение  
 
   Похожие торренты   Автор   Торрент   Размер 
В этой теме нет новых непрочитанных сообщений. Проклятие 2: Укус / Curse II: The Bite [ужасы, 1989] BDRemux 1080p, Avo

salma3

0 | 0

17.52 ГБ

В этой теме нет новых непрочитанных сообщений. Дом / House [ужасы, фэнтези, комедия, 1985] BDRip 1080p, Mvo

salma3

0 | 0

11.06 ГБ

В этой теме нет новых непрочитанных сообщений. Прикуси пулю / Bite the Bullet [Боевик, приключения, вестерн, 1975] BDRip 1080p, Mvo

salma3

43 | 26

12.63 ГБ

В этой теме нет новых непрочитанных сообщений. Страшилы / The Frighteners [ужасы, триллер, фэнтези, комедия, 1996] BDRip 1080p, Mvo [Киномания]

salma3

7 | 11

7.76 ГБ

В этой теме нет новых непрочитанных сообщений. Ночь демонов 2 / Night of the Demons 2 [ужасы, фэнтези, мелодрама, комедия, 1994] BDRip 1080p, Avo

salma3

57 | 37

8.69 ГБ

В этой теме нет новых непрочитанных сообщений. Самый страшный фильм 3D / Dead Before Dawn 3D [ужасы, комедия, приключения, 2012] BDRip 1080p, Dub

salma3

62 | 20

7.22 ГБ

В этой теме нет новых непрочитанных сообщений. Музей восковых фигур 2: Затерянные во времени / Waxwork II: Lost in Time [ужасы, фантастика, фэнтези, комедия, 1992] BDRip 1080p, Mvvo

salma3

44 | 52

13.85 ГБ


Начать новую тему Ответить на тему  [ 1 сообщение ] 




Для Мосгорсуда, Роскомнадзора и рекламодателей:: mosgorsud-torrent[собачка]yandex.ru
cron