Торрент файл
скачать торрент магнет ссылка Добавлен: 29 дек 2016, 14:42
Размер: 6.58 ГБ
Сидеров: 175
Личеров: 39
Статус: (salma3)
Автор

СообщениеДобавлено: 29 дек 2016, 14:42 

Не в сети
Супермодератор
Аватара пользователя
Дата регистрации:
15 фев 2012, 16:44
Возраст: 29
Спасибо: 7401 / 2147
Сообщения: 78594
Страна: США
Производство: Titan Sky Entertainment
Год выпуска: 2015
Жанр: ужасы, фантастика, триллер
Продолжительность: 01:15:43

Режиссер: Ричард Крэнор
Авторы сценария: Ричард Крэнор, Хью Берри

В ролях: Ричард Крэнор, Джулиан Хавиланес, Расселл Ходжкинсон, Кевин Джолли, Роберт Лишок, Алина Обер, Светлана Сутирина, Дилан Том

Описание: Туристы получают карту, где находится плантация внеземной марихуаны, которую охраняет злое существо из другого мира. Правила гласят: не фотографировать траву, не снимать траву на видео и не уносить её с собой. Траву можно только курить. И всё-таки все три правила были нарушены...



Перевод: Любительский (одноголосый, закадровый) | Xixidok
Субтитры: нет


Качество: BDRip 1080p
Формат: МКV
Видео кодек: AVC
Аудио кодек: АС3 | DTS
Видео: 1920x1080 (16:9), 23.976 fps, MPEG-4 AVC ~8 790 kbps avg
Аудио №1: 48.0 kHz, Digital Theater Systems, 3/2 (L,C,R,l,r) + LFE ch, ~1510 kbps | RUS / Xixidok
Аудио №2: 48.0 kHz, AC3 Dolby Digital, 3/2 (L,C,R,l,r) + LFE ch, ~640 kbps | RUS / Xixidok
Аудио №3: 48.0 kHz, Digital Theater Systems, 3/2 (L,C,R,l,r) + LFE ch, ~1509 kbps | ENG

Дата премьеры (мир): 6 июня 2015



General
Уникальный идентификатор : 200683470208906880860992547028696215296 (0x96FA3AFF8CDEDFDDAED9BEAEF03EAF00)
Полное имя : Star.Leaf..2015.BDRip.1080p.mkv
Формат : Matroska
Версия формата : Version 4 / Version 2
Размер файла : 6,58 Гбайт
Продолжительность : 1 ч. 15 м.
Общий поток : 12,4 Мбит/сек
Дата кодирования : UTC 2016-12-28 21:02:48
Программа кодирования : mkvmerge v6.9.1 ('Blue Panther') 64bit built on Apr 18 2014 18:23:38
Библиотека кодирования : libebml v1.3.0 + libmatroska v1.4.1

Видео
Идентификатор : 1
Формат : AVC
Формат/Информация : Advanced Video Codec
Профиль формата : High@L4.1
Параметр CABAC формата : Да
Параметр ReFrames формата : 4 кадра
Идентификатор кодека : V_MPEG4/ISO/AVC
Продолжительность : 1 ч. 15 м.
Битрейт : 8790 Кбит/сек
Ширина : 1920 пикселей
Высота : 1080 пикселей
Соотношение сторон : 16:9
Режим частоты кадров : Постоянный
Частота кадров : 23,976 кадра/сек
Цветовое пространство : YUV
Субдискретизация насыщенности : 4:2:0
Битовая глубина : 8 бит
Тип развёртки : Прогрессивная
Бит/(Пиксели*Кадры) : 0.177
Размер потока : 4,52 Гбайт (69%)
Библиотека кодирования : x264 core 148 r2638 7599210
Настройки программы : cabac=1 / ref=4 / deblock=1:0:0 / analyse=0x3:0x133 / me=umh / subme=8 / psy=1 / psy_rd=1.00:0.00 / mixed_ref=1 / me_range=16 / chroma_me=1 / trellis=1 / 8x8dct=1 / cqm=0 / deadzone=21,11 / fast_pskip=0 / chroma_qp_offset=-2 / threads=12 / lookahead_threads=2 / sliced_threads=0 / nr=0 / decimate=1 / interlaced=0 / bluray_compat=0 / constrained_intra=0 / bframes=3 / b_pyramid=2 / b_adapt=1 / b_bias=0 / direct=1 / weightb=1 / open_gop=0 / weightp=2 / keyint=250 / keyint_min=23 / scenecut=40 / intra_refresh=0 / rc_lookahead=40 / rc=2pass / mbtree=1 / bitrate=8790 / ratetol=1.0 / qcomp=0.60 / qpmin=0 / qpmax=69 / qpstep=4 / cplxblur=20.0 / qblur=0.5 / ip_ratio=1.40 / aq=1:1.00
Язык : English
Default : Да
Forced : Нет

Аудио #1
Идентификатор : 2
Формат : DTS
Формат/Информация : Digital Theater Systems
Режим : 16
Параметр Endianness формата : Big
Идентификатор кодека : A_DTS
Продолжительность : 1 ч. 15 м.
Вид битрейта : Постоянный
Битрейт : 1510 Кбит/сек
Каналы : 6 каналов
Расположение каналов : Front: L C R, Side: L R, LFE
Частота : 48,0 КГц
Частота кадров : 93,750 кадра/сек (512 spf)
Битовая глубина : 24 бит
Метод сжатия : С потерями
Размер потока : 818 Мбайт (12%)
Заголовок : Xixidoktor
Язык : Russian
Default : Да
Forced : Нет

Аудио #2
Идентификатор : 3
Формат : AC-3
Формат/Информация : Audio Coding 3
Расширение режима : CM (complete main)
Параметр Endianness формата : Big
Идентификатор кодека : A_AC3
Продолжительность : 1 ч. 15 м.
Вид битрейта : Постоянный
Битрейт : 640 Кбит/сек
Каналы : 6 каналов
Расположение каналов : Front: L C R, Side: L R, LFE
Частота : 48,0 КГц
Частота кадров : 31,250 кадров/сек (1536 spf)
Метод сжатия : С потерями
Размер потока : 347 Мбайт (5%)
Заголовок : Xixidoktor
Язык : Russian
Default : Нет
Forced : Нет

Аудио #3
Идентификатор : 4
Формат : DTS
Формат/Информация : Digital Theater Systems
Режим : 16
Параметр Endianness формата : Big
Идентификатор кодека : A_DTS
Продолжительность : 1 ч. 15 м.
Вид битрейта : Постоянный
Битрейт : 1509 Кбит/сек
Каналы : 6 каналов
Расположение каналов : Front: L C R, Side: L R, LFE
Частота : 48,0 КГц
Частота кадров : 93,750 кадра/сек (512 spf)
Битовая глубина : 24 бит
Метод сжатия : С потерями
Размер потока : 817 Мбайт (12%)
Заголовок : original
Язык : English
Default : Нет
Forced : Нет


_________________
Проголосуй за трекер Открытый торрент трекер - RUS-MEDIA.ORG

Проголосуй Открытый торрент трекер - RUS-MEDIA.ORG


Вернуться к началу
 Профиль Отправить личное сообщение  
 
   Похожие торренты   Автор   Торрент   Размер 
В этой теме нет новых непрочитанных сообщений. Звездная травка / Star Leaf [ужасы, фантастика, триллер, 2015] BDRip 720p, Mvo

salma3

129 | 53

3.6 ГБ

В этой теме нет новых непрочитанных сообщений. Звездная травка / Star Leaf [ужасы, фантастика, триллер, 2015] HDRip, Avo

salma3

121 | 101

1.24 ГБ

В этой теме нет новых непрочитанных сообщений. Звёздная принцесса и силы зла / Star vs the Forces of Evil [s01] (Фантастика, комедия, приключения, мультсериал, 2015) WEB-DLRip от ExKinoRay | D

marya111

108 | 10

3.5 ГБ

В этой теме нет новых непрочитанных сообщений. Звёздная палата / The Star Chamber [триллер, драма, криминал, 1983] BDRip-AVC, Mvo

salma3

0 | 0

2.58 ГБ

В этой теме нет новых непрочитанных сообщений. Травка / Leaves of Grass [Триллер, драма, комедия, 2009] BDRip 1080p, Mvo

salma3

0 | 37

8.88 ГБ

В этой теме нет новых непрочитанных сообщений. Путь на юг / Southbound [Ужасы, фантастика, триллер, 2015] BDRip 1080p, Avo

salma3

0 | 0

8.92 ГБ

В этой теме нет новых непрочитанных сообщений. Звёздные войны: Пробуждение силы / Star Wars: Episode VII - The Force Awakens [фантастика, фэнтези, боевик, приключения, 2015] BDRip 1080p, Dub [чистый звук]

salma3

1981 | 68

15.83 ГБ


Начать новую тему Ответить на тему  [ 1 сообщение ] 




Для Мосгорсуда, Роскомнадзора и рекламодателей:: mosgorsud-torrent[собачка]yandex.ru
cron