Торрент файл
скачать торрент магнет ссылка Добавлен: 29 дек 2016, 14:44
Размер: 3.6 ГБ
Сидеров: 129
Личеров: 53
Статус: (salma3)
Автор

СообщениеДобавлено: 29 дек 2016, 14:44 

В сети
Супермодератор
Аватара пользователя
Дата регистрации:
15 фев 2012, 16:44
Возраст: 29
Спасибо: 7422 / 2147
Сообщения: 80035
Страна: США
Производство: Titan Sky Entertainment
Год выпуска: 2015
Жанр: ужасы, фантастика, триллер
Продолжительность: 01:15:43

Режиссер: Ричард Крэнор
Авторы сценария: Ричард Крэнор, Хью Берри

В ролях: Ричард Крэнор, Джулиан Хавиланес, Расселл Ходжкинсон, Кевин Джолли, Роберт Лишок, Алина Обер, Светлана Сутирина, Дилан Том

Описание: Туристы получают карту, где находится плантация внеземной марихуаны, которую охраняет злое существо из другого мира. Правила гласят: не фотографировать траву, не снимать траву на видео и не уносить её с собой. Траву можно только курить. И всё-таки все три правила были нарушены...



Перевод: Любительский (одноголосый, закадровый) | Xixidok
Субтитры: нет


Качество: BDRip 720p
Формат: МКV
Видео кодек: AVC
Аудио кодек: АС3 | DTS
Видео: 1280x700 (16:9), 23.976 fps, MPEG-4 AVC ~4 654 kbps avg
Аудио №1: 48.0 kHz, AC3 Dolby Digital, 3/2 (L,C,R,l,r) + LFE ch, ~640 kbps | RUS / VO
Аудио №2: 48.0 kHz, Digital Theater Systems, 3/2 (L,C,R,l,r) + LFE ch, ~1509 kbps | ENG

Дата премьеры (мир): 6 июня 2015



General
Уникальный идентификатор : 207453160797471502699884702679415030812 (0x9C1206837B82398D914F66CE652A841C)
Полное имя : Star.Leaf.2015.BDRip.720p.mkv
Формат : Matroska
Версия формата : Version 4 / Version 2
Размер файла : 3,60 Гбайт
Продолжительность : 1 ч. 15 м.
Общий поток : 6803 Кбит/сек
Дата кодирования : UTC 2016-12-28 21:04:09
Программа кодирования : mkvmerge v6.9.1 ('Blue Panther') 64bit built on Apr 18 2014 18:23:38
Библиотека кодирования : libebml v1.3.0 + libmatroska v1.4.1

Видео
Идентификатор : 1
Формат : AVC
Формат/Информация : Advanced Video Codec
Профиль формата : High@L4.1
Параметр CABAC формата : Да
Параметр ReFrames формата : 5 кадров
Идентификатор кодека : V_MPEG4/ISO/AVC
Продолжительность : 1 ч. 15 м.
Битрейт : 4654 Кбит/сек
Ширина : 1280 пикселей
Высота : 720 пикселей
Соотношение сторон : 16:9
Режим частоты кадров : Постоянный
Частота кадров : 23,976 кадра/сек
Цветовое пространство : YUV
Субдискретизация насыщенности : 4:2:0
Битовая глубина : 8 бит
Тип развёртки : Прогрессивная
Бит/(Пиксели*Кадры) : 0.211
Размер потока : 2,39 Гбайт (66%)
Библиотека кодирования : x264 core 148 r2638 7599210
Настройки программы : cabac=1 / ref=5 / deblock=1:0:0 / analyse=0x3:0x133 / me=umh / subme=8 / psy=1 / psy_rd=1.00:0.00 / mixed_ref=1 / me_range=16 / chroma_me=1 / trellis=1 / 8x8dct=1 / cqm=0 / deadzone=21,11 / fast_pskip=0 / chroma_qp_offset=-2 / threads=12 / lookahead_threads=2 / sliced_threads=0 / nr=0 / decimate=1 / interlaced=0 / bluray_compat=0 / constrained_intra=0 / bframes=3 / b_pyramid=2 / b_adapt=1 / b_bias=0 / direct=1 / weightb=1 / open_gop=0 / weightp=2 / keyint=250 / keyint_min=23 / scenecut=40 / intra_refresh=0 / rc_lookahead=40 / rc=2pass / mbtree=1 / bitrate=4654 / ratetol=1.0 / qcomp=0.60 / qpmin=0 / qpmax=69 / qpstep=4 / cplxblur=20.0 / qblur=0.5 / ip_ratio=1.40 / aq=1:1.00
Язык : English
Default : Да
Forced : Нет

Аудио #1
Идентификатор : 2
Формат : AC-3
Формат/Информация : Audio Coding 3
Расширение режима : CM (complete main)
Параметр Endianness формата : Big
Идентификатор кодека : A_AC3
Продолжительность : 1 ч. 15 м.
Вид битрейта : Постоянный
Битрейт : 640 Кбит/сек
Каналы : 6 каналов
Расположение каналов : Front: L C R, Side: L R, LFE
Частота : 48,0 КГц
Частота кадров : 31,250 кадров/сек (1536 spf)
Метод сжатия : С потерями
Размер потока : 347 Мбайт (9%)
Заголовок : Xixidoktor
Язык : Russian
Default : Да
Forced : Нет

Аудио #2
Идентификатор : 3
Формат : DTS
Формат/Информация : Digital Theater Systems
Режим : 16
Параметр Endianness формата : Big
Идентификатор кодека : A_DTS
Продолжительность : 1 ч. 15 м.
Вид битрейта : Постоянный
Битрейт : 1509 Кбит/сек
Каналы : 6 каналов
Расположение каналов : Front: L C R, Side: L R, LFE
Частота : 48,0 КГц
Частота кадров : 93,750 кадра/сек (512 spf)
Битовая глубина : 24 бит
Метод сжатия : С потерями
Размер потока : 817 Мбайт (22%)
Заголовок : original
Язык : English
Default : Нет
Forced : Нет


_________________
Проголосуй за трекер Открытый торрент трекер - RUS-MEDIA.ORG

Проголосуй Открытый торрент трекер - RUS-MEDIA.ORG


Вернуться к началу
 Профиль Отправить личное сообщение  
 
   Похожие торренты   Автор   Торрент   Размер 
В этой теме нет новых непрочитанных сообщений. Звездная травка / Star Leaf [ужасы, фантастика, триллер, 2015] BDRip 1080p, Mvo

salma3

175 | 39

6.58 ГБ

В этой теме нет новых непрочитанных сообщений. Звездная травка / Star Leaf [ужасы, фантастика, триллер, 2015] HDRip, Avo

salma3

121 | 101

1.24 ГБ

В этой теме нет новых непрочитанных сообщений. Звёздная принцесса и силы зла / Star vs the Forces of Evil [s01] (Фантастика, комедия, приключения, мультсериал, 2015) WEB-DLRip от ExKinoRay | D

marya111

108 | 10

3.5 ГБ

В этой теме нет новых непрочитанных сообщений. Звёздная палата / The Star Chamber [триллер, драма, криминал, 1983] BDRip-AVC, Mvo

salma3

0 | 0

2.58 ГБ

В этой теме нет новых непрочитанных сообщений. Травка / Leaves of Grass [Триллер, драма, комедия, 2009] BDRip 720p, Mvo [Лицензия]

salma3

0 | 25

5.26 ГБ

В этой теме нет новых непрочитанных сообщений. Мега Акула против Колосса / Mega Shark vs. Kolossus (Кристофер Рэй) [2015, ужасы, фантастика, боевик, триллер, BDRip 720p] avo

Nickolas3435

217 | 13

3.68 ГБ

В этой теме нет новых непрочитанных сообщений. Звёздные войны: Пробуждение силы / Star Wars: Episode VII - The Force Awakens (фантастика, фэнтези, боевик, приключения, 2015) BDRip 720p от HELLYWOOD | Лицензия, P, A

marya111

175 | 22

7.95 ГБ


Начать новую тему Ответить на тему  [ 1 сообщение ] 




Для Мосгорсуда, Роскомнадзора и рекламодателей:: mosgorsud-torrent[собачка]yandex.ru
cron