Торрент файл
скачать торрент магнет ссылка Добавлен: 30 дек 2016, 11:24
Размер: 4.37 ГБ
Сидеров: 10
Личеров: 66
Статус: (salma3)
Автор

СообщениеДобавлено: 30 дек 2016, 11:24 

Не в сети
Супермодератор
Аватара пользователя
Дата регистрации:
15 фев 2012, 16:44
Возраст: 29
Спасибо: 7421 / 2147
Сообщения: 79842
Производство: США, Германия, Япония
Жанр: Боевик, Фантастика, Триллер
Продолжительность: 01:38:09
Перевод: Дублированный, профессиональный многоголосый, авторский (Ю.Живов)
Субтитры: Русский, английский
Режиссер: Джон МакТирнан

Актеры: Крис Клейн, Жан Рено, LL Кул Джей, Ребекка Ромин, Нэвин Эндрюс, Олег Тактаров, Дэвид Хемблен, Джанет Райт, Эндрю Бринярски, Ката Добо

Описание:
Джонатан Кросс и его друзья по команде — звезды самого опасного и зрелищного вида спорта будущего Роллербола, напичканного трюками и умопомрачительными спецэффектами, однако проблемы начинаются тогда, когда создатель игры Петрович понимает, что программа получает наибольшие рейтинги тогда, когда происходят жуткие несчастные случаи, не считаясь с жизнями спортсменов, Петрович намерен побить рейтинговый рекорд.



Качество: BDRip 720p
Видео: AVC, 1280x548 (2.35:1), 23.976 fps, 4 521 Kbps (0.269 bit/pixel)
Аудио #1: AC-3, 48.0 KHz, 2 ch, 192 Kbps, CBR (Russian) - дублированный
Аудио #2: AC-3, 48.0 KHz, 6 ch, 640 Kbps, CBR (Russian) - многоголосый
Аудио #3: AC-3, 48.0 KHz, 6 ch, 384 Kbps, CBR (Russian) - авторский
Аудио #4: AC-3, 48.0 KHz, 6 ch, 640 Kbps, CBR (English) - оригинал

Код:
Формат                                   : Matroska
Версия формата                           : Version 2
Размер файла                             : 4,37 Гбайт
Продолжительность                        : 1 ч. 38 м.
Общий поток                              : 6374 Кбит/сек
Дата кодирования                         : UTC 2016-12-30 06:36:39
Программа кодирования                    : mkvmerge v5.3.0 ('I could have danced') built on Feb  9 2012 10:38:07
Библиотека кодирования                   : libebml v1.2.3 + libmatroska v1.3.0
Attachments                              : poster 11.jpg

Видео
Идентификатор                            : 1
Формат                                   : AVC
Формат/Информация                        : Advanced Video Codec
Профиль формата                          : High@L4.1
Параметр CABAC формата                   : Да
Параметр ReFrames формата                : 11 кадров
Идентификатор кодека                     : V_MPEG4/ISO/AVC
Продолжительность                        : 1 ч. 38 м.
Битрейт                                  : 4521 Кбит/сек
Ширина                                   : 1280 пикселей
Высота                                   : 548 пикселей
Соотношение сторон                       : 2,35:1
Режим частоты кадров                     : Постоянный
Частота кадров                           : 23,976 кадра/сек
Цветовое пространство                    : YUV
Субдискретизация насыщенности            : 4:2:0
Битовая глубина                          : 8 бит
Тип развёртки                            : Прогрессивная
Бит/(Пиксели*Кадры)                      : 0.269
Размер потока                            : 3,01 Гбайт (69%)
Библиотека кодирования                   : x264 core 146 r2538 121396c
Настройки программы                      : cabac=1 / ref=11 / deblock=1:-3:-3 / analyse=0x3:0x133 / me=umh / subme=11 / psy=1 / psy_rd=1.00:0.00 / mixed_ref=1 / me_range=32 / chroma_me=1 / trellis=2 / 8x8dct=1 / cqm=0 / deadzone=21,11 / fast_pskip=0 / chroma_qp_offset=-2 / threads=12 / lookahead_threads=3 / sliced_threads=0 / nr=0 / decimate=0 / interlaced=0 / bluray_compat=0 / constrained_intra=0 / bframes=8 / b_pyramid=2 / b_adapt=2 / b_bias=0 / direct=3 / weightb=1 / open_gop=0 / weightp=2 / keyint=240 / keyint_min=23 / scenecut=40 / intra_refresh=0 / rc=2pass / mbtree=0 / bitrate=4521 / ratetol=1.0 / qcomp=0.60 / qpmin=0 / qpmax=69 / qpstep=4 / cplxblur=20.0 / qblur=0.5 / ip_ratio=1.40 / pb_ratio=1.30 / aq=1:0.70
Язык                                     : English
Default                                  : Да
Forced                                   : Нет

Аудио #1
Идентификатор                            : 2
Формат                                   : AC-3
Формат/Информация                        : Audio Coding 3
Расширение режима                        : CM (complete main)
Параметр Endianness формата              : Big
Идентификатор кодека                     : A_AC3
Продолжительность                        : 1 ч. 38 м.
Вид битрейта                             : Постоянный
Битрейт                                  : 192 Кбит/сек
Каналы                                   : 2 канала
Расположение каналов                     : Front: L R
Частота                                  : 48,0 КГц
Частота кадров                           : 31,250 кадров/сек (1536 spf)
Битовая глубина                          : 16 бит
Метод сжатия                             : С потерями
Размер потока                            : 135 Мбайт (3%)
Заголовок                                : Дублированный
Язык                                     : Russian
Default                                  : Да
Forced                                   : Нет

Аудио #2
Идентификатор                            : 3
Формат                                   : AC-3
Формат/Информация                        : Audio Coding 3
Расширение режима                        : CM (complete main)
Параметр Endianness формата              : Big
Идентификатор кодека                     : A_AC3
Продолжительность                        : 1 ч. 38 м.
Вид битрейта                             : Постоянный
Битрейт                                  : 640 Кбит/сек
Каналы                                   : 6 каналов
Расположение каналов                     : Front: L C R, Side: L R, LFE
Частота                                  : 48,0 КГц
Частота кадров                           : 31,250 кадров/сек (1536 spf)
Битовая глубина                          : 16 бит
Метод сжатия                             : С потерями
Размер потока                            : 449 Мбайт (10%)
Заголовок                                : Профессиональный многоголосый
Язык                                     : Russian
Default                                  : Нет
Forced                                   : Нет

Аудио #3
Идентификатор                            : 4
Формат                                   : AC-3
Формат/Информация                        : Audio Coding 3
Расширение режима                        : CM (complete main)
Параметр Endianness формата              : Big
Идентификатор кодека                     : A_AC3
Продолжительность                        : 1 ч. 38 м.
Вид битрейта                             : Постоянный
Битрейт                                  : 384 Кбит/сек
Каналы                                   : 6 каналов
Расположение каналов                     : Front: L C R, Side: L R, LFE
Частота                                  : 48,0 КГц
Частота кадров                           : 31,250 кадров/сек (1536 spf)
Битовая глубина                          : 16 бит
Метод сжатия                             : С потерями
Размер потока                            : 270 Мбайт (6%)
Заголовок                                : Авторский одноголосый (Живов)
Язык                                     : Russian
Default                                  : Нет
Forced                                   : Нет

Аудио #4
Идентификатор                            : 5
Формат                                   : AC-3
Формат/Информация                        : Audio Coding 3
Расширение режима                        : CM (complete main)
Параметр Endianness формата              : Big
Идентификатор кодека                     : A_AC3
Продолжительность                        : 1 ч. 38 м.
Вид битрейта                             : Постоянный
Битрейт                                  : 640 Кбит/сек
Каналы                                   : 6 каналов
Расположение каналов                     : Front: L C R, Side: L R, LFE
Частота                                  : 48,0 КГц
Частота кадров                           : 31,250 кадров/сек (1536 spf)
Битовая глубина                          : 16 бит
Метод сжатия                             : С потерями
Размер потока                            : 449 Мбайт (10%)
Язык                                     : English
Default                                  : Нет
Forced                                   : Нет

Текст #1
Идентификатор                            : 6
Формат                                   : UTF-8
Идентификатор кодека                     : S_TEXT/UTF8
Идентификатор кодека/Информация          : UTF-8 Plain Text
Язык                                     : Russian
Default                                  : Нет
Forced                                   : Нет

Текст #2
Идентификатор                            : 7
Формат                                   : UTF-8
Идентификатор кодека                     : S_TEXT/UTF8
Идентификатор кодека/Информация          : UTF-8 Plain Text
Язык                                     : English
Default                                  : Нет
Forced                                   : Нет

Текст #3
Идентификатор                            : 8
Формат                                   : UTF-8
Идентификатор кодека                     : S_TEXT/UTF8
Идентификатор кодека/Информация          : UTF-8 Plain Text
Язык                                     : English
Default                                  : Нет
Forced                                   : Нет

Меню
00:00:00.000                             : :Chapter 01
00:04:50.414                             : :Chapter 02
00:09:21.519                             : :Chapter 03
00:18:24.144                             : :Chapter 04
00:24:08.780                             : :Chapter 05
00:29:49.661                             : :Chapter 06
00:36:29.770                             : :Chapter 07
00:40:18.165                             : :Chapter 08
00:47:37.312                             : :Chapter 09
00:51:20.410                             : :Chapter 10
00:58:45.229                             : :Chapter 11
01:06:08.296                             : :Chapter 12
01:12:33.807                             : :Chapter 13
01:17:56.921                             : :Chapter 14
01:26:43.531                             : :Chapter 15
01:30:24.001
x264 [info]: profile High, level 4.1
x264 [info]: frame I:955 Avg QP:15.22 size: 87851 PSNR Mean Y:48.39 U:51.07 V:52.19 Avg:48.93 Global:48.57
x264 [info]: frame P:39557 Avg QP:18.30 size: 38438 PSNR Mean Y:46.35 U:50.47 V:51.91 Avg:47.05 Global:46.65
x264 [info]: frame B:100690 Avg QP:19.99 size: 17095 PSNR Mean Y:45.31 U:49.72 V:51.42 Avg:46.06 Global:45.59


_________________
Проголосуй за трекер Открытый торрент трекер - RUS-MEDIA.ORG

Проголосуй Открытый торрент трекер - RUS-MEDIA.ORG


Вернуться к началу
 Профиль Отправить личное сообщение  
 
   Похожие торренты   Автор   Торрент   Размер 
В этой теме нет новых непрочитанных сообщений. Роллербол / Rollerball [Фантастика, боевик, спорт, 2002] BDRemux 1080p, Mvo

salma3

0 | 39

23.38 ГБ

В этой теме нет новых непрочитанных сообщений. Эквилибриум / Equilibrium [фантастика, боевик, триллер, 2002] BDRip 720p, Dub [Open Matte]

salma3

0 | 0

8.48 ГБ

В этой теме нет новых непрочитанных сообщений. Годзилла против Мехагодзиллы 3 / Gojira X Mekagojira [фантастика, боевик, триллер, 2002] BDRip 720p, Dvo

salma3

1 | 4

3.31 ГБ

В этой теме нет новых непрочитанных сообщений. Куб 2: Гиперкуб / Cube 2: Hypercube [триллер, научная фантастика, 2002] BDRip 720p, Dvo

salma3

41 | 30

3.47 ГБ

В этой теме нет новых непрочитанных сообщений. Куб 2: Гиперкуб / Cube 2: Hypercube [триллер, научная фантастика, 2002] BDRip 720p, Dvo

salma3

84 | 77

4.7 ГБ

В этой теме нет новых непрочитанных сообщений. Блэйд 2 / Blade 2 [Боевик, Фантастика, Ужас, Триллер, 2002] BDRip 720, Dub [Лицензия]

salma3

29 | 8

3.64 ГБ

В этой теме нет новых непрочитанных сообщений. Детоксикация / D-Tox [боевик, триллер, драма, 2002] BDRip 720p, Mvo

salma3

0 | 0

5.05 ГБ


Начать новую тему Ответить на тему  [ 1 сообщение ] 




Для Мосгорсуда, Роскомнадзора и рекламодателей:: mosgorsud-torrent[собачка]yandex.ru
cron