Торрент файл
скачать торрент магнет ссылка Добавлен: 30 дек 2016, 22:18
Размер: 4.5 ГБ
Сидеров: 35
Личеров: 8
Статус: (salma3)
Автор

СообщениеДобавлено: 30 дек 2016, 22:18 

В сети
Супермодератор
Аватара пользователя
Дата регистрации:
15 фев 2012, 16:44
Возраст: 29
Спасибо: 7434 / 2147
Сообщения: 80293
Год выхода: 2010
Жанр: драма, криминал
Режиссер: Ромен Гаврас

В ролях: Венсан Кассель, Оливье Бартелеми, Жюстен Лероуа, Ванесса Дека, Борис Гамтети, Родольф Бланшет, Клоэ Катоан, Сильвен Ле Минез, Пьер Буланжер, Матильда Брор

Описание: Фильм рассказывает историю молодого человека Реми. У него нет друзей, кроме стареющего психоаналитика. В школе его шпыняют, а его семья его ненавидит. Когда чаша терпения переполняется, Реми и его друг на последние деньги покупают спортивную машину, хорошие костюмы и едут в Ирландию в поисках понимания. Но то, что начинается как поиск идеала, быстро скатывается в неистовую ярость и саморазрушение.



Страна: Франция
Продолжительность: 01:23:25
Перевод 1: Любительский (двухголосый закадровый) Чип и Дейл
Перевод 2: Одноголосый закадровый zamez

Файл
Кодек: x264
Качество: BDRip 720p (рип от CHD)
Видео: 1280x544 (2,35:1) at 25,000 fps, 4505 Кbps, 0.259 bpp
Аудио 1: AC3; 192 Kbps; CBR; 2 ch; 48 khz | DVO - Чип и Дейл |
Аудио 2: DTS; 1536 Kbps; CBR; 6 ch; 48 khz; 24 bit | VO - zamez |
Аудио 3: DTS; 1536 Kbps; CBR; 6 ch; 48 khz; 24 bit | Французский |

Общее
Уникальный идентификатор : 227539963803789965449134395057986435206 (0xAB2E9A5D1F98BA899E9D7C6A4F5D7886)
Полное имя : Наш день придет.2010.DVO.720p.BluRay.x264-CHD.mkv
Формат : Matroska
Версия формата : Version 4 / Version 2
Размер файла : 4,50 Гбайт
Продолжительность : 1 ч. 23 м.
Общий поток : 7718 Кбит/сек
Дата кодирования : UTC 2013-03-12 00:16:32
Программа кодирования : mkvmerge v6.1.0 ('Old Devil') built on Mar 2 2013 14:32:37
Библиотека кодирования : libebml v1.3.0 + libmatroska v1.4.0

Видео
Идентификатор : 1
Формат : AVC
Формат/Информация : Advanced Video Codec
Профиль формата : High@L4.1
Параметр CABAC формата : Да
Параметр ReFrames формата : 12 кадров
Идентификатор кодека : V_MPEG4/ISO/AVC
Продолжительность : 1 ч. 23 м.
Битрейт : 4505 Кбит/сек
Ширина : 1280 пикселей
Высота : 544 пикселя
Соотношение сторон : 2,35:1
Режим частоты кадров : Постоянный
Частота кадров : 25,000 кадров/сек
Цветовое пространство : YUV
Субдискретизация насыщенности : 4:2:0
Битовая глубина : 8 бит
Тип развёртки : Прогрессивная
Бит/(Пиксели*Кадры) : 0.259
Размер потока : 2,54 Гбайт (56%)
Библиотека кодирования : x264 core 128 r2216+698 b3c1019
Настройки программы : cabac=1 / ref=12 / deblock=1:1:1 / analyse=0x3:0x113 / me=umh / subme=10 / psy=1 / fade_compensate=0.00 / psy_rd=1.05:0.10 / mixed_ref=1 / me_range=32 / chroma_me=1 / trellis=2 / 8x8dct=1 / cqm=0 / deadzone=21,11 / fast_pskip=0 / chroma_qp_offset=-2 / threads=12 / lookahead_threads=2 / sliced_threads=0 / nr=0 / decimate=1 / interlaced=0 / bluray_compat=0 / constrained_intra=0 / fgo=0 / bframes=6 / b_pyramid=2 / b_adapt=2 / b_bias=0 / direct=3 / weightb=1 / open_gop=0 / weightp=2 / keyint=250 / keyint_min=25 / scenecut=40 / intra_refresh=0 / rc=2pass / mbtree=0 / bitrate=4505 / ratetol=1.0 / qcomp=0.70 / qpmin=0 / qpmax=69 / qpstep=4 / cplxblur=20.0 / qblur=0.5 / ip_ratio=1.40 / pb_ratio=1.30 / aq=2:1.00
Язык : French
Default : Да
Forced : Нет

Аудио #1
Идентификатор : 2
Формат : AC-3
Формат/Информация : Audio Coding 3
Расширение режима : CM (complete main)
Параметр Endianness формата : Big
Идентификатор кодека : A_AC3
Продолжительность : 1 ч. 23 м.
Вид битрейта : Постоянный
Битрейт : 192 Кбит/сек
Каналы : 2 канала
Расположение каналов : Front: L R
Частота : 48,0 КГц
Битовая глубина : 16 бит
Метод сжатия : С потерями
Размер потока : 115 Мбайт (2%)
Заголовок : DVO [Чип и Дейл]
Язык : Russian
Default : Да
Forced : Нет

Аудио #2
Идентификатор : 3
Формат : DTS
Формат/Информация : Digital Theater Systems
Режим : 16
Параметр Endianness формата : Big
Идентификатор кодека : A_DTS
Продолжительность : 1 ч. 23 м.
Вид битрейта : Постоянный
Битрейт : 1509 Кбит/сек
Каналы : 6 каналов
Расположение каналов : Front: L C R, Side: L R, LFE
Частота : 48,0 КГц
Битовая глубина : 24 бит
Метод сжатия : С потерями
Размер потока : 900 Мбайт (20%)
Заголовок : VO [zamez]
Язык : Russian
Default : Нет
Forced : Нет

Аудио #3
Идентификатор : 4
Формат : DTS
Формат/Информация : Digital Theater Systems
Режим : 16
Параметр Endianness формата : Big
Идентификатор кодека : A_DTS
Продолжительность : 1 ч. 23 м.
Вид битрейта : Постоянный
Битрейт : 1509 Кбит/сек
Каналы : 6 каналов
Расположение каналов : Front: L C R, Side: L R, LFE
Частота : 48,0 КГц
Битовая глубина : 24 бит
Метод сжатия : С потерями
Размер потока : 900 Мбайт (20%)
Язык : French
Default : Нет
Forced : Нет

Текст #1
Идентификатор : 5
Формат : UTF-8
Идентификатор кодека : S_TEXT/UTF8
Идентификатор кодека/Информация : UTF-8 Plain Text
Заголовок : [imiraelis]
Язык : Russian
Default : Нет
Forced : Нет

Текст #2
Идентификатор : 6
Формат : UTF-8
Идентификатор кодека : S_TEXT/UTF8
Идентификатор кодека/Информация : UTF-8 Plain Text
Заголовок : fansub
Язык : English
Default : Нет
Forced : Нет

Меню
00:00:00.000 : de:00:00:00.000
00:04:56.600 : de:00:04:56.600
00:10:04.200 : de:00:10:04.200
00:15:58.400 : de:00:15:58.400
00:19:55.800 : de:00:19:55.800
00:25:41.400 : de:00:25:41.400
00:30:20.200 : de:00:30:20.200
00:40:04.800 : de:00:40:04.800
00:51:36.200 : de:00:51:36.200
01:00:47.000 : de:01:00:47.000
01:05:46.200 : de:01:05:46.200
01:18:37.800 : de:01:18:37.800


_________________
Проголосуй за трекер Открытый торрент трекер - RUS-MEDIA.ORG

Проголосуй Открытый торрент трекер - RUS-MEDIA.ORG


Вернуться к началу
 Профиль Отправить личное сообщение  
 
   Похожие торренты   Автор   Торрент   Размер 
В этой теме нет новых непрочитанных сообщений. Завтра не придет никогда / No Tomorrow [боевик, драма, криминал, 1999] DVDRip, Mvo [Рен-ТВ]

salma3

0 | 1

1.37 ГБ

В этой теме нет новых непрочитанных сообщений. Любовник на день / L'amant d'un jour [Драма, 2017] WEBRip 720p, Mvo [GreenРай Studio]

salma3

17 | 8

2.29 ГБ

В этой теме нет новых непрочитанных сообщений. Стрижка / Sisanje [боевик, драма, криминал, 2010] BDRip 720p, Avo

salma3

49 | 9

4.97 ГБ

В этой теме нет новых непрочитанных сообщений. Она придёт сегодня ночью / Tonight She Comes [Ужасы, 2016] BDRip 1080p, Avo

salma3

108 | 81

7.41 ГБ

В этой теме нет новых непрочитанных сообщений. 22 пули: Бессмертный / L'immortel [боевик, драма, криминал, 2010] BDRip 720p, Dub

salma3

158 | 14

4.88 ГБ

В этой теме нет новых непрочитанных сообщений. Под перекрестным огнем / Caught in the Crossfire [Драма, криминал, детектив, 2010] BDRip 720p, Dvo [НТВ+]

salma3

128 | 41

2.99 ГБ

В этой теме нет новых непрочитанных сообщений. Валланцаска - ангелы зла / Vallanzasca - Gli angeli del male [биография, криминал, драма, 2010] BDRip 720p, Mvo

salma3

20 | 3

4.48 ГБ


Начать новую тему Ответить на тему  [ 1 сообщение ] 




Для Мосгорсуда, Роскомнадзора и рекламодателей:: mosgorsud-torrent[собачка]yandex.ru
cron