Торрент файл
скачать торрент магнет ссылка Добавлен: 31 дек 2016, 18:39
Размер: 5.39 ГБ
Сидеров: 1918
Личеров: 518
Автор

СообщениеДобавлено: 31 дек 2016, 18:39 

Не в сети
Дата регистрации:
28 сен 2016, 18:10
Спасибо: 217 / 0
Сообщения: 1996
Год выхода: 2016
Страна: США
Жанр: боевик, триллер, драма, криминал
Продолжительность: 02:07:54
Перевод: Профессиональный (полное дублирование) [iTunes]
Субтитры: нет

Режиссер: Гэвин О’Коннор / Gavin O'Connor

В ролях: Бен Аффлек (Christian Wolff), Анна Кендрик (Dana Cummings), Дж.К. Симмонс (Ray King), Джон Бернтал (Brax), Джеффри Тэмбор (Francis Silverberg), Синтия Аддай-Робинсон (Marybeth Medina), Джон Литгоу (Lamar Black), Джин Смарт (Rita Blackburn), Энди Умбергер (Ed Chilton), Элисон Райт (Justine)

Описание: Лента расскажет историю математического гения Кристиана Вульфа, который подрабатывает аудитором для самых опасных преступных организаций. Когда ему «на хвост» садится отдел по борьбе с преступностью Министерства финансов во главе с Рэем Кингом Кристиан решает найти себе законопослушного клиента и проводит аудит в компании по производству новейшей робототехники, где сотрудница финансового отдела обнаружила «нестыковочку» в миллионы долларов. Но стоит Кристиану взяться за счета и выйти на след, как в деле начинают появляться жертвы.

Качество видео: BDRip 720p (HDS)
Формат видео: MKV

Видео: 1280х536, 23.976 fps, AVC ~5531 kbps avg
Аудио: 48 kHz, AC3 Dolby Digital, 3/2 (L,C,R,l,r) + LFE ch, ~384.00 kbps avg

Релиз от:







The.Accountant.2016.720p_BDRip_r5_[scarabey.org].mkv
Формат : Matroska
Версия формата : Version 4 / Version 2
Размер файла : 5,39 Гбайт
Продолжительность : 2 ч. 7 м.
Общий поток : 6035 Кбит/сек
Название фильма : The Accountant 2016 720p BluRay DTS x264-HDS
Дата кодирования : UTC 2016-12-27 21:13:52
Программа кодирования : mkvmerge v6.1.0 ('Old Devil') built on Mar 4 2013 09:10:42
Библиотека кодирования : libebml v1.3.0 + libmatroska v1.4.0

Видео
Идентификатор : 1
Формат : AVC
Формат/Информация : Advanced Video Codec
Профиль формата : High@L4.1
Параметр CABAC формата : Да
Параметр ReFrames формата : 12 кадров
Идентификатор кодека : V_MPEG4/ISO/AVC
Продолжительность : 2 ч. 7 м.
Битрейт : 5531 Кбит/сек
Ширина : 1280 пикселей
Высота : 536 пикселей
Соотношение сторон : 2,40:1
Режим частоты кадров : Постоянный
Частота кадров : 23,976 (23976/1000) кадра/сек
Цветовое пространство : YUV
Субдискретизация насыщенности : 4:2:0
Битовая глубина : 8 бит
Тип развёртки : Прогрессивная
Бит/(Пиксели*Кадры) : 0.336
Размер потока : 4,94 Гбайт (92%)
Заголовок : 剑心@HDS
Библиотека кодирования : x264 core 148 r2705+45 bdacf7a 7mod [8-bit@all X86_64]
Настройки программы : cabac=1 / ref=12 / deblock=1:-3:-3 / analyse=0x3:0x113 / me=umh / subme=11 / psy=1 / fade_compensate=0.00 / psy_rd=1.00:0.05 / mixed_ref=1 / me_range=32 / chroma_me=1 / trellis=2 / 8x8dct=1 / cqm=0 / deadzone=21,11 / fast_pskip=0 / chroma_qp_offset=-2 / threads=28 / lookahead_threads=4 / sliced_threads=0 / nr=0 / decimate=1 / interlaced=0 / bluray_compat=0 / constrained_intra=0 / fgo=0 / bframes=8 / b_pyramid=2 / b_adapt=2 / b_bias=0 / direct=3 / weightb=1 / open_gop=0 / weightp=2 / keyint=250 / keyint_min=23 / scenecut=40 / intra_refresh=0 / rc=crf / mbtree=0 / crf=17.5000 / qcomp=0.60 / qpmin=0:0:0 / qpmax=69:69:69 / qpstep=4 / ip_ratio=1.40 / pb_ratio=1.30 / aq=4:0.90 / aq-sensitivity=10.00 / aq-factor=1.00:1.00:1.00 / aq2=0 / aq3=0
Default : Да
Forced : Нет

Аудио
Идентификатор : 2
Формат : AC-3
Формат/Информация : Audio Coding 3
Расширение режима : CM (complete main)
Параметр Endianness формата : Big
Идентификатор кодека : A_AC3
Продолжительность : 2 ч. 7 м.
Вид битрейта : Постоянный
Битрейт : 384 Кбит/сек
Каналы : 6 каналов
Расположение каналов : Front: L C R, Side: L R, LFE
Частота : 48,0 КГц
Частота кадров : 31,250 кадров/сек (1536 spf)
Метод сжатия : С потерями
Размер потока : 351 Мбайт (6%)
Заголовок : Дубляж - iTunes
Язык : Russian
Default : Да
Forced : Нет

Текст
Идентификатор : 3
Формат : UTF-8
Идентификатор кодека : S_TEXT/UTF8
Идентификатор кодека/Информация : UTF-8 Plain Text
Заголовок : русские, форсированные
Язык : Russian
Default : Да
Forced : Нет




Вернуться к началу
 Профиль Отправить личное сообщение  
 
   Похожие торренты   Автор   Торрент   Размер 
В этой теме нет новых непрочитанных сообщений. Расплата / The Accountant (боевик, триллер, драма, криминал, 2016) BDRip 720p от Scarabey | Line

marya111

2788 | 424

5.39 ГБ

В этой теме нет новых непрочитанных сообщений. Расплата / The Accountant (боевик, триллер, драма, криминал, 2016) HDRip от Scarabey | iTunes

marya111

1114 | 147

2.14 ГБ

В этой теме нет новых непрочитанных сообщений. Расплата / The Accountant ( боевик, триллер, драма, криминал, 2016) BDRip-AVC | iTunes

marya111

1019 | 92

1.46 ГБ

В этой теме нет новых непрочитанных сообщений. Расплата / The Accountant (Боевик, триллер, драма, криминал, 2016) BDRip | iPad | iTunes

marya111

294 | 40

2.2 ГБ

В этой теме нет новых непрочитанных сообщений. Расплата / The Accountant (боевик, триллер, драма, криминал, 2016) BDRip от Twi7ter | iTunes

marya111

1183 | 140

2.13 ГБ

В этой теме нет новых непрочитанных сообщений. Расплата / The Accountant (боевик, триллер, драма, криминал, 2016) BDRip-AVC от HELLYWOOD | iTunes

marya111

363 | 45

2.85 ГБ

В этой теме нет новых непрочитанных сообщений. Расплата / The Accountant (Боевик, Триллер, Драма, Криминал, 2016) BDRip 1080p | iTunes

marya111

663 | 216

14.06 ГБ


Начать новую тему Ответить на тему  [ 1 сообщение ] 




Для Мосгорсуда, Роскомнадзора и рекламодателей:: mosgorsud-torrent[собачка]yandex.ru
cron