Торрент файл
скачать торрент магнет ссылка Добавлен: 08 янв 2017, 13:55
Размер: 7 ГБ
Сидеров: 22
Личеров: 8
Статус: (salma3)
Автор

СообщениеДобавлено: 08 янв 2017, 13:55 

Не в сети
Супермодератор
Аватара пользователя
Дата регистрации:
15 фев 2012, 16:44
Возраст: 29
Спасибо: 7400 / 2147
Сообщения: 78391
Год выхода: 1993
Жанр: Боевик, боевые искусства, фантастика
Режиссер: Т.Дж. Скотт

В ролях: Боло Йенг, Джалал Мерхи, Билли Блэнкс, Бобби Филлипс, Маттиас Хьюз, Келли Галлант, Гарри Мок, Рамсей Смит, Грегори Филпот

О фильме:
Напарницу полицейского Джейсона Сторма, Зои, погибшую во время патрулирования выходов из подземного, обустроенного мира на мало пригодную для жизни поверхность Земли, превращают в абсолютно неуязвимого киборга-убийцу. Джейсон узнает, что Зои запрограммирована взорвать бездействующую атомную станцию. Шеф полиции, возжелавший управлять всем миром, готов уничтожить вместе с преступниками все население Северной Америки. Для того, чтобы предотвратить катастрофу, Джейсон объединяет усилия с самым грозным и уважаемым боевиком одной из группировок, Сумаем…



Страна: Канада, США
Продолжительность: 01:34:48
Перевод:
1. Профессиональный двухголосый закадровый (Студия "Ракурс")
2. Авторский одноголосый закадровый (Гаврилов)
3. Авторский одноголосый закадровый (Володарский)

Файл
Кодек: x264, AVC
Качество: BDRip 1080p
Видео: 1920x1080, 10000 kbps, 23,976 fps
Звук:
1. AC3, 192 kbps, 48 KHz, 2 channels
2. AC3, 192 kbps, 48 KHz, 2 channels
3. AC3, 192 kbps, 48 KHz, 2 channels

Чаптеры сохранены

General
Unique ID : 199498449797927182477655762407540176137 (0x961600FB2A1CD8D2BB2808B12090B509)
Complete name : Полицейский 2000 года [TC 2000, 1993] 1080p.mkv
Format : Matroska
Format version : Version 2
File size : 7.00 GiB
Duration : 1 h 34 min
Overall bit rate : 10.6 Mb/s
Movie name : TC 2000
Encoded date : UTC 2016-12-09 17:09:14
Writing application : mkvmerge v4.2.0 ('No Talking') сборка от Jul 28 2010 18:38:23
Writing library : libebml v1.0.0 + libmatroska v1.0.0

Video
ID : 1
Format : AVC
Format/Info : Advanced Video Codec
Format profile : High@L4.1
Format settings, CABAC : Yes
Format settings, ReFrames : 4 frames
Muxing mode : Header stripping
Codec ID : V_MPEG4/ISO/AVC
Duration : 1 h 34 min
Bit rate : 10 000 kb/s
Width : 1 920 pixels
Height : 1 080 pixels
Display aspect ratio : 16:9
Frame rate mode : Constant
Frame rate : 23.976 (24000/1001) FPS
Color space : YUV
Chroma subsampling : 4:2:0
Bit depth : 8 bits
Scan type : Progressive
Bits/(Pixel*Frame) : 0.201
Stream size : 6.48 GiB (93%)
Title : TC 2000 (1993)
Writing library : x264 core 148 r2638 7599210
Encoding settings : cabac=1 / ref=4 / deblock=1:-3:-3 / analyse=0x3:0x133 / me=umh / subme=11 / psy=1 / psy_rd=1.00:0.15 / mixed_ref=1 / me_range=64 / chroma_me=1 / trellis=2 / 8x8dct=1 / cqm=0 / deadzone=21,11 / fast_pskip=1 / chroma_qp_offset=-3 / threads=6 / lookahead_threads=1 / sliced_threads=0 / nr=0 / decimate=1 / interlaced=0 / bluray_compat=0 / constrained_intra=0 / bframes=3 / b_pyramid=2 / b_adapt=2 / b_bias=0 / direct=3 / weightb=1 / open_gop=0 / weightp=2 / keyint=240 / keyint_min=23 / scenecut=40 / intra_refresh=0 / rc_lookahead=60 / rc=2pass / mbtree=1 / bitrate=10000 / ratetol=1.0 / qcomp=0.60 / qpmin=0 / qpmax=51 / qpstep=4 / cplxblur=20.0 / qblur=0.5 / vbv_maxrate=62500 / vbv_bufsize=78125 / nal_hrd=none / filler=0 / ip_ratio=1.40 / aq=1:1.00
Default : Yes
Forced : No

Audio #1
ID : 2
Format : AC-3
Format/Info : Audio Coding 3
Mode extension : CM (complete main)
Format settings, Endianness : Big
Muxing mode : Header stripping
Codec ID : A_AC3
Duration : 1 h 34 min
Bit rate mode : Constant
Bit rate : 192 kb/s
Channel(s) : 2 channels
Channel positions : Front: L R
Sampling rate : 48.0 kHz
Frame rate : 31.250 FPS (1536 spf)
Compression mode : Lossy
Stream size : 130 MiB (2%)
Title : Двухголосый (Ракурс)
Language : Russian
Default : Yes
Forced : No

Audio #2
ID : 3
Format : AC-3
Format/Info : Audio Coding 3
Mode extension : CM (complete main)
Format settings, Endianness : Big
Muxing mode : Header stripping
Codec ID : A_AC3
Duration : 1 h 34 min
Bit rate mode : Constant
Bit rate : 192 kb/s
Channel(s) : 2 channels
Channel positions : Front: L R
Sampling rate : 48.0 kHz
Frame rate : 31.250 FPS (1536 spf)
Compression mode : Lossy
Stream size : 130 MiB (2%)
Title : Гаврилов
Language : Russian
Default : No
Forced : No

Audio #3
ID : 4
Format : AC-3
Format/Info : Audio Coding 3
Mode extension : CM (complete main)
Format settings, Endianness : Big
Muxing mode : Header stripping
Codec ID : A_AC3
Duration : 1 h 34 min
Bit rate mode : Constant
Bit rate : 192 kb/s
Channel(s) : 2 channels
Channel positions : Front: L R
Sampling rate : 48.0 kHz
Frame rate : 31.250 FPS (1536 spf)
Compression mode : Lossy
Stream size : 130 MiB (2%)
Title : Володарский
Language : Russian
Default : No
Forced : No

Menu
00:00:00.000 : en:Chapter 1 / en:Chapter 01
00:10:01.559 : en:Chapter 2 / en:Chapter 02
00:17:08.068 : en:Chapter 3
00:27:04.664 : en:Chapter 4
00:36:13.004 : en:Chapter 5 / en:Chapter 05
00:45:53.584 : en:Chapter 6
00:54:57.419 : en:Chapter 7 / en:Chapter 07
01:04:02.088 : en:Chapter 8 / en:Chapter 08
01:11:48.470 : en:Chapter 9 / en:Chapter 09
01:20:08.595 : en:Chapter 10 / en:Chapter 10
01:23:53.486 : en:Chapter 11
01:30:33.928 : en:Chapter 12 / en:Chapter 12
00:17:08.069 : en:Chapter 03
00:27:04.665 : en:Chapter 04
00:45:53.583 : en:Chapter 06
01:23:53.487 : en:Chapter 11


_________________
Проголосуй за трекер Открытый торрент трекер - RUS-MEDIA.ORG

Проголосуй Открытый торрент трекер - RUS-MEDIA.ORG


Вернуться к началу
 Профиль Отправить личное сообщение  
 
   Похожие торренты   Автор   Торрент   Размер 
В этой теме нет новых непрочитанных сообщений. Полицейский 2000 года / TC 2000 [Боевик, Фантастика, 1993] BDRip-AVC, Dvo+2Avo

salma3

35 | 9

2.18 ГБ

В этой теме нет новых непрочитанных сообщений. Полицейский 2000 года / TC 2000 [Фантастика, боевик, 1993] BDRemux 1080p, Dvo

salma3

27 | 7

14.35 ГБ

В этой теме нет новых непрочитанных сообщений. Полицейский 2000 года / TC 2000 [Фантастика, боевик, 1993] BDRip-AVC, Dvo

salma3

35 | 9

745.09 МБ

В этой теме нет новых непрочитанных сообщений. Смертельные гонки 2000 года / Death Race 2000 [фантастика, боевик, комедия, спорт, 1975] BDRip-AVC, Avo

salma3

28 | 11

2.1 ГБ

В этой теме нет новых непрочитанных сообщений. Легенда / Fong Sai Yuk [Боевик, боевые искусства, 1993] BDRip 1080p, Mvo

salma3

42 | 7

6.07 ГБ

В этой теме нет новых непрочитанных сообщений. Два воина / Tai ji: Zhang San Feng [Боевик, боевые искусства, 1993] BDRip 1080p, Mvo

salma3

65 | 24

6.11 ГБ

В этой теме нет новых непрочитанных сообщений. Уравнитель 2000 / Equalizer 2000 [фантастика, боевик, приключения, 1987] BDRip 1080p, Avo

salma3

136 | 46

7.79 ГБ


Начать новую тему Ответить на тему  [ 1 сообщение ] 




Для Мосгорсуда, Роскомнадзора и рекламодателей:: mosgorsud-torrent[собачка]yandex.ru
cron