Торрент файл
скачать торрент магнет ссылка Добавлен: 19 янв 2017, 22:04
Размер: 8.27 ГБ
Сидеров: 30
Личеров: 10
Статус: (salma3)
Автор

СообщениеДобавлено: 19 янв 2017, 22:04 

Не в сети
Супермодератор
Аватара пользователя
Дата регистрации:
15 фев 2012, 16:44
Возраст: 29
Спасибо: 7420 / 2147
Сообщения: 79782
Год выхода: 1971
Жанр: боевик, драма, военный
Режиссер: Питер Йетс

В ролях: Питер О’Тул (Murphy), Шан Филлипс (Hayden), Филипп Нуаре (Brezan), Хорст Янсон (Lauchs), Джон Хэллам (Ellis), Инго Могендорф (Voght), Гарри Филдер (German Sub Crewman), Джордж Рубисек (U-Boat Crewman)

О фильме:
Мерфи (Питер О'Тул) - единственный член экипажа, оставшийся в живых после нападения немецкой подлодки на ирландское торговое судно в конце Второй мировой войны у берегов Венесуэлы. Раненым он попадает в британский госпиталь, расположенный в тропической деревне, где его выхаживает медсестра Холден, искренне сочувствующая герою. Мерфи не может забыть своих погибших товарищей, он горит ненавистью к немецкой субмарине и мечтает отомстить. Узнав, что на одном из островов в джунглях обнаружен неисправный морской самолет, Мерфи находит его, восстанавливает и готовится к боевому вылету, самостоятельно осваивая пилотирование.
Приходит май сорок пятого, Германия капитулирует, но Мерфи это известие уже не остановит - он должен отомстить врагам, потопившим его корабль. И Мерфи объявляет свою личную войну подводной лодке...



Страна: Великобритания
Студия: Hemdale
Продолжительность: 01:46:38
Перевод: Профессиональный (многоголосый закадровый)

Файл
Качество: WEB-DL 1080p
Видео: High@L4, ~10.8 Mb/s, 1920x816, 23.976 fps
Аудио#1: Russian: 48 kHz, AC3, 2/0 (L,R) ch, ~192.00 kbps avg |Многоголосый закадровый|
Аудио#2: English: 48 kHz, АAC, 2/0 (L,R) ch, ~125.00 kbps avg
Субтитры: English

Релиз: by alinto

General
Unique ID : 198003512685386986305470393957001572102 (0x94F616E4101D97D0895D323933F5AF06)
Complete name : C:UsersDoMiNoDesktopMurphy's.War.1971.1080p.WEB-DL.AAC2.0.H.264-alinto.mkv
Format : Matroska
Format version : Version 4 / Version 2
File size : 8.27 GiB
Duration : 1 h 46 min
Overall bit rate mode : Variable
Overall bit rate : 11.1 Mb/s
Encoded date : UTC 2017-01-17 14:50:44
Writing application : mkvmerge v9.5.0 ('Quiet Fire') 64bit
Writing library : libebml v1.3.4 + libmatroska v1.4.5

Video
ID : 1
Format : AVC
Format/Info : Advanced Video Codec
Format profile : High@L4
Format settings, CABAC : Yes
Format settings, ReFrames : 4 frames
Codec ID : V_MPEG4/ISO/AVC
Duration : 1 h 46 min
Bit rate mode : Variable
Bit rate : 10.8 Mb/s
Maximum bit rate : 15.0 Mb/s
Width : 1 920 pixels
Height : 816 pixels
Display aspect ratio : 2.35:1
Frame rate mode : Constant
Frame rate : 23.976 (24000/1001) FPS
Color space : YUV
Chroma subsampling : 4:2:0
Bit depth : 8 bits
Scan type : Progressive
Bits/(Pixel*Frame) : 0.287
Stream size : 8.03 GiB (97%)
Language : English
Default : Yes
Forced : No
Color range : Limited
Color primaries : BT.709
Transfer characteristics : BT.709
Matrix coefficients : BT.709

Audio #1
ID : 2
Format : AC-3
Format/Info : Audio Coding 3
Mode extension : CM (complete main)
Format settings, Endianness : Big
Codec ID : A_AC3
Duration : 1 h 46 min
Bit rate mode : Constant
Bit rate : 192 kb/s
Channel(s) : 2 channels
Channel positions : Front: L R
Sampling rate : 48.0 kHz
Frame rate : 31.250 FPS (1536 spf)
Bit depth : 16 bits
Compression mode : Lossy
Stream size : 146 MiB (2%)
Language : Russian
Default : Yes
Forced : No

Audio #2
ID : 3
Format : AAC
Format/Info : Advanced Audio Codec
Format profile : LC
Codec ID : A_AAC
Duration : 1 h 46 min
Bit rate : 125 kb/s
Channel(s) : 2 channels
Channel positions : Front: L R
Sampling rate : 48.0 kHz
Frame rate : 46.875 FPS (1024 spf)
Compression mode : Lossy
Stream size : 95.6 MiB (1%)
Language : English
Default : No
Forced : No

Text
ID : 4
Format : UTF-8
Codec ID : S_TEXT/UTF8
Codec ID/Info : UTF-8 Plain Text
Duration : 1 h 45 min
Bit rate : 24 b/s
Count of elements : 821
Stream size : 19.3 KiB (0%)
Language : English
Default : No
Forced : No


_________________
Проголосуй за трекер Открытый торрент трекер - RUS-MEDIA.ORG

Проголосуй Открытый торрент трекер - RUS-MEDIA.ORG


Вернуться к началу
 Профиль Отправить личное сообщение  
 
   Похожие торренты   Автор   Торрент   Размер 
В этой теме нет новых непрочитанных сообщений. Война Мерфи / Murphy’s War [Драма, военный, 1971] WEB-DL 1080p, Mvo

salma3

0 | 0

8.32 ГБ

В этой теме нет новых непрочитанных сообщений. Война Мерфи / Murphy’s War [боевик, драма, военный, 1971] WEB-DLRip-AVC, Mvo

salma3

37 | 15

1.45 ГБ

В этой теме нет новых непрочитанных сообщений. Закон Мерфи / Murphy's Law [боевик, триллер, драма, криминал, детектив, 1986] BDRip 1080p, , Mvo+3Avo+Sub

salma3

76 | 21

7.64 ГБ

В этой теме нет новых непрочитанных сообщений. Закон Мерфи / Murphy's Law [Детектив, триллер, боевик, 1986] BDRemux 1080p, Mvo

salma3

28 | 22

24.3 ГБ

В этой теме нет новых непрочитанных сообщений. Любовь Мёрфи / Роман Мёрфи / Murphy's Romance [Мелодрама, комедия, драма, 1985] WEB-DLRip 720p, Mvo [Первый канал]

salma3

0 | 0

3.99 ГБ

В этой теме нет новых непрочитанных сообщений. Закон Мерфи / Murphy's Law [боевик, драма, криминал, 1986] HDRip, Mvo

salma3

109 | 7

1.45 ГБ

В этой теме нет новых непрочитанных сообщений. Красный барон / Von Richthofen and Brown [боевик, драма, военный, 1971] BD-Remux 1080p, Dvo

salma3

0 | 0

11.59 ГБ


Начать новую тему Ответить на тему  [ 1 сообщение ] 




Для Мосгорсуда, Роскомнадзора и рекламодателей:: mosgorsud-torrent[собачка]yandex.ru
cron