Торрент файл
скачать торрент магнет ссылка Добавлен: 20 янв 2017, 12:29
Размер: 4.37 ГБ
Сидеров: 51
Личеров: 12
Статус: (salma3)
Автор

СообщениеДобавлено: 20 янв 2017, 12:29 

Не в сети
Супермодератор
Аватара пользователя
Дата регистрации:
15 фев 2012, 16:44
Возраст: 29
Спасибо: 7400 / 2147
Сообщения: 78259
Год выхода: 1996
Жанр: фантастика, боевик, триллер
Режиссер: Тим Бёртон
Выпущено: США
Продолжительность: 01:45:49
Перевод: Дублированный, Профессиональный (двухголосый закадровый), Авторский (одноголосый закадровый)
В ролях: Джек Николсон, Гленн Клоуз, Аннетт Бенинг, Пирс Броснан, Дэнни ДеВито, Мартин Шорт, Сара Джессика Паркер, Майкл Дж. Фокс, Род Стайгер, Том Джонс, Натали Портман
[/list]

Сюжет фильма
    Наша планета подверглась чудовищному нападению. Марсиане, бесстрастные и бездушные существа, эти маленькие зеленые создания, высаживаются в пустыне со своих космических кораблей, а затем наступают на всех направлениях. Столичный Вашингтон, Лас-Вегас и другие города сотрясаются от мощнейших взрывов, разрушениям нет числа...
    Президент США призывает командование своих вооруженных сил принять меры, однако мнения самих командующих, двух генералов разделились. «Разбить и вернуть их на Марс!», - считает генерал Деккер. «Заключить мир», - возражает генерал Кейси.
    Дальнейшие события должны продемонстрировать, кто же из них прав.


Файл
    Качество: BDRip 720p (исходник Blu-Ray Disc)
    Формат: MKV
    Видео: 1280x532, 4190 Кбит/сек, 23,976 кадр/сек, AVC, x264, High@L4.1, 2.40:1, 0.257 Бит/[Пиксели*Кадры]
    Аудио 1: AC-3, 384 Кбит/сек, 6 канала(ов), 48,0 КГц - Дублированный / Русский
    Аудио 2: AC-3, 448 Кбит/сек, 6 канала(ов), 48,0 КГц - Двухголосый закадровый,Tycoon-Studio / Русский
    Аудио 3: AC-3, 448 Кбит/сек, 6 канала(ов), 48,0 КГц - Одноголосый закадровый, Ю.Живов / Русский
    Аудио 4: AC-3, 448 Кбит/сек, 6 канала(ов), 48,0 КГц - Оригинал / Английский
    Субтитры: Русские | Полные, Английские | Полные
    Форсированные субтитры: Нет
    Чаптеры (Главы): Есть



Автор Рипа: Группа:



Format : Matroska
Format version : Version 2
File size : 4.37 GiB
Duration : 1 h 45 min
Overall bit rate : 5 915 kb/s
Movie name : Mars Attacks.(1996).BDRip.720p.[envy]
Encoded date : UTC 2017-01-18 16:06:51
Writing application : mkvmerge v5.8.0 ('No Sleep / Pillow') built on Sep 2 2012 15:37:04
Writing library : libebml v1.2.3 + libmatroska v1.3.0
Video
ID : 1
Format : AVC
Format/Info : Advanced Video Codec
Format profile : High@L4.1
Format settings, CABAC : Yes
Format settings, ReFrames : 11 frames
Codec ID : V_MPEG4/ISO/AVC
Duration : 1 h 45 min
Bit rate : 4 190 kb/s
Width : 1 280 pixels
Height : 532 pixels
Display aspect ratio : 2.40:1
Frame rate mode : Constant
Frame rate : 23.976 (24000/1001) FPS
Color space : YUV
Chroma subsampling : 4:2:0
Bit depth : 8 bits
Scan type : Progressive
Bits/(Pixel*Frame) : 0.257
Stream size : 3.01 GiB (69%)
Title : Mars Attacks.(1996).BDRip.720p.[envy]
Writing library : x264 core 148 r2744 b97ae06
Encoding settings : cabac=1 / ref=11 / deblock=1:-3:-3 / analyse=0x3:0x133 / me=umh / subme=11 / psy=1 / psy_rd=1.00:0.00 / mixed_ref=1 / me_range=32 / chroma_me=1 / trellis=2 / 8x8dct=1 / cqm=0 / deadzone=21,11 / fast_pskip=0 / chroma_qp_offset=-2 / threads=12 / lookahead_threads=1 / sliced_threads=0 / nr=0 / decimate=1 / interlaced=0 / bluray_compat=0 / constrained_intra=0 / bframes=5 / b_pyramid=2 / b_adapt=2 / b_bias=0 / direct=3 / weightb=1 / open_gop=0 / weightp=2 / keyint=240 / keyint_min=23 / scenecut=40 / intra_refresh=0 / rc=2pass / mbtree=0 / bitrate=4190 / ratetol=2.0 / qcomp=0.60 / qpmin=0 / qpmax=69 / qpstep=4 / cplxblur=20.0 / qblur=0.5 / ip_ratio=1.40 / pb_ratio=1.30 / aq=2:0.80
Language : English
Default : Yes
Forced : No
Audio #1
ID : 2
Format : AC-3
Format/Info : Audio Coding 3
Mode extension : CM (complete main)
Format settings, Endianness : Big
Codec ID : A_AC3
Duration : 1 h 45 min
Bit rate mode : Constant
Bit rate : 384 kb/s
Channel(s) : 6 channels
Channel positions : Front: L C R, Side: L R, LFE
Sampling rate : 48.0 kHz
Frame rate : 31.250 FPS (1536 spf)
Compression mode : Lossy
Stream size : 291 MiB (6%)
Title : Dub R5
Language : Russian
Default : Yes
Forced : No
Audio #2
ID : 3
Format : AC-3
Format/Info : Audio Coding 3
Mode extension : CM (complete main)
Format settings, Endianness : Big
Codec ID : A_AC3
Duration : 1 h 45 min
Bit rate mode : Constant
Bit rate : 448 kb/s
Channel(s) : 6 channels
Channel positions : Front: L C R, Side: L R, LFE
Sampling rate : 48.0 kHz
Frame rate : 31.250 FPS (1536 spf)
Compression mode : Lossy
Stream size : 339 MiB (8%)
Title : DVO Tycoon-Studio
Language : Russian
Default : No
Forced : No
Audio #3
ID : 4
Format : AC-3
Format/Info : Audio Coding 3
Mode extension : CM (complete main)
Format settings, Endianness : Big
Codec ID : A_AC3
Duration : 1 h 45 min
Bit rate mode : Constant
Bit rate : 448 kb/s
Channel(s) : 6 channels
Channel positions : Front: L C R, Side: L R, LFE
Sampling rate : 48.0 kHz
Frame rate : 31.250 FPS (1536 spf)
Compression mode : Lossy
Stream size : 339 MiB (8%)
Title : AVO Живов
Language : Russian
Default : No
Forced : No
Audio #4
ID : 5
Format : AC-3
Format/Info : Audio Coding 3
Mode extension : CM (complete main)
Format settings, Endianness : Big
Codec ID : A_AC3
Duration : 1 h 45 min
Bit rate mode : Constant
Bit rate : 448 kb/s
Channel(s) : 6 channels
Channel positions : Front: L C R, Side: L R, LFE
Sampling rate : 48.0 kHz
Frame rate : 31.250 FPS (1536 spf)
Compression mode : Lossy
Stream size : 339 MiB (8%)
Title : Eng
Language : English
Default : No
Forced : No
Text #1
ID : 6
Format : UTF-8
Codec ID : S_TEXT/UTF8
Codec ID/Info : UTF-8 Plain Text
Title : Rus full
Language : Russian
Default : No
Forced : No
Text #2
ID : 7
Format : UTF-8
Codec ID : S_TEXT/UTF8
Codec ID/Info : UTF-8 Plain Text
Title : Eng full
Language : English
Default : No
Forced : No
Menu
00:00:00.000 : :Chapter 01
00:01:24.833 : :Chapter 02
00:04:01.823 : :Chapter 03
00:06:41.192 : :Chapter 04
00:09:19.558 : :Chapter 05
00:12:40.009 : :Chapter 06
00:17:31.800 : :Chapter 07
00:21:02.135 : :Chapter 08
00:24:05.443 : :Chapter 09
00:26:42.309 : :Chapter 10
00:27:33.400 : :Chapter 11
00:29:00.363 : :Chapter 12
00:35:25.123 : :Chapter 13
00:43:25.268 : :Chapter 14
00:45:12.501 : :Chapter 15
00:46:37.002 : :Chapter 16
00:47:52.035 : :Chapter 17
00:51:44.226 : :Chapter 18
00:55:23.695 : :Chapter 19
00:57:46.087 : :Chapter 20
00:58:30.215 : :Chapter 21
00:59:44.872 : :Chapter 22
01:04:31.784 : :Chapter 23
01:07:28.794 : :Chapter 24
01:10:59.171 : :Chapter 25
01:12:33.515 : :Chapter 26
01:15:22.975 : :Chapter 27
01:17:42.658 : :Chapter 28
01:19:36.313 : :Chapter 29
01:20:58.103 : :Chapter 30
01:23:35.969 : :Chapter 31
01:25:24.911 : :Chapter 32
01:27:09.307 : :Chapter 33
01:30:17.120 : :Chapter 34
01:30:49.777 : :Chapter 35
01:33:58.506 : :Chapter 36
01:35:57.084 : :Chapter 37
01:40:03.037 : :Chapter 38



_________________
Проголосуй за трекер Открытый торрент трекер - RUS-MEDIA.ORG

Проголосуй Открытый торрент трекер - RUS-MEDIA.ORG


Вернуться к началу
 Профиль Отправить личное сообщение  
 
   Похожие торренты   Автор   Торрент   Размер 
В этой теме нет новых непрочитанных сообщений. Марс атакует! / Mars Attacks! [1996, фантастика, комедия] BDRip-HEVC 1080p, Dub

salma3

59 | 32

4.62 ГБ

В этой теме нет новых непрочитанных сообщений. Марс атакует! / Mars Attacks! [фантастика, комедия, 1996] HDRip-AVC, Dub

salma3

84 | 23

745.9 МБ

В этой теме нет новых непрочитанных сообщений. Миссия на Марс / Mission to Mars [антастика, триллер, драма, 2000] BDRip-AVC, Dub

salma3

0 | 0

2.18 ГБ

В этой теме нет новых непрочитанных сообщений. Призраки Марса / Ghosts of Mars [Фантастика, ужасы, боевик, 2001] BDRip 720p, Mvo

salma3

0 | 0

5.75 ГБ

В этой теме нет новых непрочитанных сообщений. Экспедиция на Марс / Expedition Mars [документальный, исследование, космос, астрономия, 2016] TVRip, Dub

salma3

54 | 10

1.38 ГБ

В этой теме нет новых непрочитанных сообщений. Новости с планеты Марс / Des nouvelles de la planète Mars [комедия, 2016] WEB-DLRip, Dub [iTunes]

salma3

414 | 22

1.48 ГБ

В этой теме нет новых непрочитанных сообщений. Прибытие / The Arrival [фантастика, триллер, 1996] BDRip 720p, Mvo+Dvo+Avo+Sub

salma3

122 | 45

7.32 ГБ


Начать новую тему Ответить на тему  [ 1 сообщение ] 




Для Мосгорсуда, Роскомнадзора и рекламодателей:: mosgorsud-torrent[собачка]yandex.ru
cron