Торрент файл
скачать торрент магнет ссылка Добавлен: 22 янв 2017, 21:30
Размер: 5.25 ГБ
Сидеров: 105
Личеров: 15
Статус: (salma3)
Автор

СообщениеДобавлено: 22 янв 2017, 21:30 

В сети
Супермодератор
Аватара пользователя
Дата регистрации:
15 фев 2012, 16:44
Возраст: 29
Спасибо: 7401 / 2147
Сообщения: 78485
Год выхода: 2003
Жанр: Триллер, приключения, вестерн
Режиссер: Рон Ховард

В ролях: Кейт Бланшетт, Дженна Бойд, Ивэн Рэйчел Вуд, Томми Ли Джонс, Вэл Килмер, Эрик Швайг, Аарон Экхарт, Серджо Калдерон, Стив Ривис, Джэй Таваре, Рэй МакКиннон, Макс Перлич, Дерил Дж. Лухан, Мэттью Э. Монтойя, Джаддсон Кит Линн,

О фильме:
Дикий Запад, 1886 год. Лекарь и мать-одиночка Мэгги Гилкесон живет в небольшом поселке и давно забыла о своем отце - тот много лет назад бросил семью и ушел жить с апачами. Но теперь только он может помочь несчастной женщине, у которой бандиты, возглавляемые безумным шаманом, украли старшую дочь, чтобы продать ее в рабство по другую сторону границы.



Страна: США, Daniel Ostroff Productions, Imagine Entertainment, Revolution Studios
Продолжительность: 02:17:28
Перевод: Профессиональный многоголосый закадровый, авторский одноголосый.
Субтитры: Русские, английские

Файл
Кодек: MPEG-4 AVC
Качество: WEBRip 720p [исх-BLUEBIRD]
Видео: High@L4.1, ~3500 Кбит/с, 1280x534, 23.976 Кадр/с
Звук #1: Russian AC3 / 448 kbps / 6ch / 48 kHz / 448 kbps / DN -4dB - Профессиональный многоголосый (ВидеоСервис)
Звук #2: Russian AC3 / 448 kbps / 6ch / 48 kHz / 448 kbps / DN -4dB - Авторский одноголосый (Ю. Живов)
Звук #3: Russian AC3 / 448 kbps / 6ch / 48 kHz / 448 kbps / DN -4dB - Авторский одноголосый (А. Гаврилов)
Звук #4: English AC3 / 640 kbps / 6ch / 48 kHz / 640 kbps /

За звуковые дорожки спасибо koharubiyori
Присутствует Английский хардсаб на иноязычную речь
=====================================================
x264 info: frame I:1677 Avg QP:15.61 size:104926
x264 info: frame P:53548 Avg QP:18.48 size: 32464
x264 info: frame B:141882 Avg QP:20.19 size: 11833
x264 info: consecutive B-frames: 5.0% 6.5% 9.7% 40.1% 12.6% 17.1% 2.7% 3.3% 1.3% 0.8% 0.9%

===================================================

General
Unique ID : 69022736717558557245455180275456314397 (0x33ED4BA915E4712F52149DAFCE2A8C1D)
Complete name : F:FILMSПоследний рейд.(2003).WEBRIP.720p.[-=DoMiNo=-].mkv
Format : Matroska
Format version : Version 4 / Version 2
File size : 5.25 GiB
Duration : 2 h 17 min
Overall bit rate : 5 489 kb/s
Movie name : Последний рейд
Deion : Дикий Запад, 1886 год. Старый Сэм, много лет назад бросивший свою семью и ушедший жить к индейцам племени апачей, возвращается в родной дом, в надежде помириться с дочерью Мэгги Гилксон. / И хотя в сердце Мэгги все еще жива горькая обида, она вынуждена обратиться к отцу за помощью. Ведь только этот странный и ставший давно чужим человек способен спасти ее старшую дочь Лили, похищенную безжалостным психопатом Чайдином…
Writing application : XviD4PSP 7.0.347 DAILY
Writing library : Lavf57.41.100 / Lavf57.41.100
Attachments : poster.jpg
ACTORS : Томми Ли Джонс, Кейт Бланшетт, Эван Рэйчел Вуд, Аарон Экхарт, Дженна Бойд, Вэл Килмер, Серхио Кальдерон, Эрик Швейг, Стив Ривис, Джей Таваре, Саймон Бэйкер, Рэй МакКиннон, Макс Перлих, Рамон Фрэнк, Дерил Дж. Луйан, Мэттью Э. Монтойя, Джо Саенз, Ганди Шоу, Род Рондо, Джаддсон Кит Линн, Элвин Уильям ’Дач’ Лунак, Элизабет Мосс, Жозефин Шван, Александра Элич, Иоланда Нез, Хезер Гулас, Скарлетт МакАлистер, Аура Дженсен Кертис, Шелби Кокурек, Молли МакАлистер, Анхелина Торрес, Дебора Мартинес, Клинт Ховард, Рэнс Ховард, Аррон Шивер, Дэвид Мидфандер, Пол Скаллан, Джерри Кинг, Джеймс Тарватер, Дэвид Гарвер, Клементе Споттедхорс, Брайан Браун, Тоби Холгин, Эдди Дж. Фернандез, Джейсон Рейнс-Родригез, Том Берто, Ричард Барела, Льюис Калбрет, Клифф Расселл, Крис Талли
COMPOSER : Джеймс Хорнер
COUNTRY : США
DATE : 2003
DIRECTOR : Рон Ховард
ENCODING_INFO : MATROSKA,WEBM > MKV 720p / H264 > X264 VBR-2P 3500kbps Произвольный / AC3 > COPY / AC3 > COPY / AC3 > COPY / EAC3 > COPY
GENRE : триллер, приключения, вестерн
HD_VIDEO : 1
IMDB_RATING : 6.50
ITUNEXTC : mpaa|R|400|
MEDIA_TYPE : 9
ORIGINAL_ACTORS : Tommy Lee Jones, Cate Blanchett, Evan Rachel Wood, Aaron Eckhart, Jenna Boyd, Val Kilmer, Sergio Calderón, Eric Schweig, Steve Reevis, Jay Tavare, Simon Baker, Ray McKinnon, Max Perlich, Ramon Frank, Deryle J. Lujan, Matthew E. Montoya (в титрах: Matthew Montoya), Joe Saenz, Gandi Shaw, Rod Rondeaux, Juddson Keith Linn (в титрах: Juddson Linn), Alvin William «Dutch» Lunak (в титрах: Dutch Lunak), Elisabeth Moss, Josephine Schwan, Alexandra Elich, Yolanda Nez, Heather Gulas, Scarlett McAlister, Aura Jensen-Curtis, Shelby Kocurek, Molly McAlister, Angelina Torres (в титрах: Angelina C. Torres), Deborah Martinez, Clint Howard, Rance Howard, Arron Shiver, David Midthunder, Paul Scallan, Jerry King, James Tarwater (в титрах: Jim Tarwater), David Garver, Clemente Spottedhorse, Brian Brown, Toby Holguin, Eddie J. Fernandez (в титрах: Eddie Fernandez), Jason Reins-Rodriguez, Tom Berto, Richard Barela, Lewis Culbreth, Cliff Russell, Chris Talley
ORIGINAL_TITLE : The Missing
PRODUCER : Брайан Грейзер, Рон Ховард, Дэниэл Острофф, Сью Бергер, Стив Кристал, Томас Эйдсон, Тодд Халлоуэлл, Кэтлин МакГилл, Алдрич Ла’Аули Портер, Луиса Велис
RATING : 6.920
SYNOPSIS : Дикий Запад, 1886 год. Старый Сэм, много лет назад бросивший свою семью и ушедший жить к индейцам племени апачей, возвращается в родной дом, в надежде помириться с дочерью Мэгги Гилксон. / И хотя в сердце Мэгги все еще жива горькая обида, она вынуждена обратиться к отцу за помощью. Ведь только этот странный и ставший давно чужим человек способен спасти ее старшую дочь Лили, похищенную безжалостным психопатом Чайдином…
WRITER : Кен Кауфман, Томас Эйдсон

Video
ID : 1
Format : AVC
Format/Info : Advanced Video Codec
Format profile : High@L4.1
Format settings, CABAC : Yes
Format settings, ReFrames : 9 frames
Codec ID : V_MPEG4/ISO/AVC
Duration : 2 h 17 min
Bit rate : 3 500 kb/s
Width : 1 280 pixels
Height : 534 pixels
Display aspect ratio : 2.40:1
Frame rate mode : Constant
Frame rate : 23.976 (24000/1001) FPS
Color space : YUV
Chroma subsampling : 4:2:0
Bit depth : 8 bits
Scan type : Progressive
Bits/(Pixel*Frame) : 0.214
Stream size : 3.25 GiB (62%)
Writing library : x264 core 148 r2744M b97ae06
Encoding settings : cabac=1 / ref=9 / deblock=1:-3:-3 / analyse=0x3:0x133 / me=umh / subme=11 / psy=1 / psy_rd=1.00:0.10 / mixed_ref=1 / me_range=48 / chroma_me=1 / trellis=2 / 8x8dct=1 / cqm=0 / deadzone=21,11 / fast_pskip=0 / chroma_qp_offset=-3 / threads=5 / lookahead_threads=1 / sliced_threads=0 / nr=0 / decimate=1 / interlaced=0 / bluray_compat=0 / constrained_intra=0 / bframes=10 / b_pyramid=2 / b_adapt=2 / b_bias=0 / direct=3 / weightb=1 / open_gop=0 / weightp=2 / keyint=230 / keyint_min=23 / scenecut=40 / intra_refresh=0 / rc=2pass / mbtree=0 / bitrate=3500 / ratetol=1.0 / qcomp=0.60 / qpmin=0 / qpmax=69 / qpstep=4 / cplxblur=20.0 / qblur=0.5 / ip_ratio=1.40 / pb_ratio=1.30 / aq=1:1.00
Language : English
Default : Yes
Forced : No
Color range : Limited
Color primaries : BT.709
Transfer characteristics : BT.709
Matrix coefficients : BT.709
DURATION : 02:17:00.963000000

Audio #1
ID : 2
Format : AC-3
Format/Info : Audio Coding 3
Mode extension : CM (complete main)
Format settings, Endianness : Big
Codec ID : A_AC3
Duration : 2 h 17 min
Bit rate mode : Constant
Bit rate : 448 kb/s
Channel(s) : 6 channels
Channel positions : Front: L C R, Side: L R, LFE
Sampling rate : 48.0 kHz
Frame rate : 31.250 FPS (1536 spf)
Bit depth : 16 bits
Compression mode : Lossy
Stream size : 439 MiB (8%)
Title : Профессиональный многоголосый (ВидеоСервис)
Language : Russian
Default : Yes
Forced : No
DURATION : 02:16:57.056000000

Audio #2
ID : 3
Format : AC-3
Format/Info : Audio Coding 3
Mode extension : CM (complete main)
Format settings, Endianness : Big
Codec ID : A_AC3
Duration : 2 h 17 min
Bit rate mode : Constant
Bit rate : 448 kb/s
Channel(s) : 6 channels
Channel positions : Front: L C R, Side: L R, LFE
Sampling rate : 48.0 kHz
Frame rate : 31.250 FPS (1536 spf)
Bit depth : 16 bits
Compression mode : Lossy
Stream size : 439 MiB (8%)
Title : Авторский одноголосый (Ю. Живов)
Language : Russian
Default : No
Forced : No
DURATION : 02:17:01.088000000

Audio #3
ID : 4
Format : AC-3
Format/Info : Audio Coding 3
Mode extension : CM (complete main)
Format settings, Endianness : Big
Codec ID : A_AC3
Duration : 2 h 17 min
Bit rate mode : Constant
Bit rate : 448 kb/s
Channel(s) : 6 channels
Channel positions : Front: L C R, Side: L R, LFE
Sampling rate : 48.0 kHz
Frame rate : 31.250 FPS (1536 spf)
Bit depth : 16 bits
Compression mode : Lossy
Stream size : 439 MiB (8%)
Title : Авторский одноголосый (А. Гаврилов)
Language : Russian
Default : No
Forced : No
DURATION : 02:16:57.056000000

Audio #4
ID : 5
Format : E-AC-3
Format/Info : Enhanced Audio Coding 3
Format settings, Endianness : Big
Codec ID : A_EAC3
Duration : 2 h 17 min
Bit rate mode : Constant
Bit rate : 640 kb/s
Channel(s) : 6 channels
Channel positions : Front: L C R, Side: L R, LFE
Sampling rate : 48.0 kHz
Frame rate : 187.500 FPS (256 spf)
Bit depth : 32 bits
Compression mode : Lossy
Stream size : 627 MiB (12%)
Title : ENG
Language : English
Default : No
Forced : No
DURATION : 02:17:00.960000000

Text #1
ID : 6
Format : UTF-8
Codec ID : S_TEXT/UTF8
Codec ID/Info : UTF-8 Plain Text
Title : RUS_full
Language : Russian
Default : Yes
Forced : No
DURATION : 02:09:20.805000000

Text #2
ID : 7
Format : UTF-8
Codec ID : S_TEXT/UTF8
Codec ID/Info : UTF-8 Plain Text
Title : ENG_full
Language : English
Default : No
Forced : No
DURATION : 02:09:21.612000000

Text #3
ID : 8
Format : UTF-8
Codec ID : S_TEXT/UTF8
Codec ID/Info : UTF-8 Plain Text
Title : ENG_SDH
Language : English
Default : No
Forced : No
DURATION : 02:09:59.792000000

Menu
00:00:00.000 : :Глава 1
00:10:59.242 : :Глава 2
00:20:21.429 : :Глава 3
00:30:33.016 : :Глава 4
00:41:47.714 : :Глава 5
00:52:44.078 : :Глава 6
01:04:49.928 : :Глава 7
01:17:58.716 : :Глава 8
01:28:26.101 : :Глава 9
01:38:37.107 : :Глава 10
01:50:24.587 : :Глава 11
02:01:55.988 : :Глава 12


_________________
Проголосуй за трекер Открытый торрент трекер - RUS-MEDIA.ORG

Проголосуй Открытый торрент трекер - RUS-MEDIA.ORG


Вернуться к началу
 Профиль Отправить личное сообщение  
 
   Похожие торренты   Автор   Торрент   Размер 
В этой теме нет новых непрочитанных сообщений. Последний рейд / The Missing [Триллер, приключения, вестерн, 2003] WEBRip-AVC, Mvo+Sub

salma3

65 | 12

2.17 ГБ

В этой теме нет новых непрочитанных сообщений. Последний рейд / The Missing [Триллер, приключения, вестерн, 2003] WEBRip 1080p, Mvo+Dvo+Avo+Sub

salma3

20 | 167

11.62 ГБ

В этой теме нет новых непрочитанных сообщений. Выживший / The Revenant (Алехандро Гонсалес Иньярриту) [триллер, драма, приключения, вестерн, 2015] WEBRip 720p [Есарев]

Dracon

1193 | 47

3.72 ГБ

В этой теме нет новых непрочитанных сообщений. Рейд Ульзаны / Ulzana's Raid [приключения, вестерн, 1972] HDRip, Mvo

salma3

274 | 54

1.45 ГБ

В этой теме нет новых непрочитанных сообщений. Последний самурай / The Last Samurai [боевик, драма, приключения, 2003] BDRip 720p, Dub

salma3

0 | 0

7.75 ГБ

В этой теме нет новых непрочитанных сообщений. Последний свидетель / The Last Witness [Триллер, история, 2018] WEBRip 720p, Dvo

salma3

42 | 22

3.21 ГБ

В этой теме нет новых непрочитанных сообщений. Последний раз видели в Айдахо / Last Seen in Idaho [Триллер, криминал, детектив, 2018] WEBRip 720p, Dvo

salma3

149 | 47

2.39 ГБ


Начать новую тему Ответить на тему  [ 1 сообщение ] 




Для Мосгорсуда, Роскомнадзора и рекламодателей:: mosgorsud-torrent[собачка]yandex.ru
cron