Торрент файл
скачать торрент магнет ссылка Добавлен: 06 фев 2017, 12:45
Размер: 4.37 ГБ
Сидеров: 71
Личеров: 47
Статус: (salma3)
Автор

СообщениеДобавлено: 06 фев 2017, 12:45 

Не в сети
Супермодератор
Аватара пользователя
Дата регистрации:
15 фев 2012, 16:44
Возраст: 29
Спасибо: 7428 / 2147
Сообщения: 80047
Год выпуска: 2001
Жанр: Приключения, исторический, боевик, драма
Выпущено: США , Литва
Режиссер: Дик Лоури

В ролях: Джерард Батлер, Пауэрс Бут, Симон Маккинон, Рег Роджерс, Элис Крайдж, Полин Линч, Стивен Беркофф, Эндрю Плевин, Томми Флэнаган, Кирсти Митчел

О фильме: Древние пророчества гласили, что однажды появится человек, который сможет объединить племена свирепых воинов и бросить вызов непобедимой Римской Империи, которая веками правила античным миром.
Имя этого человека стало легендарным и навсегда вошло в историю человечества: Аттила - бесстрашный повелитель гуннов. Фильм повествует о противостоянии двух самых могущественных людей своего времени и их армий: непокорного Аттилы и прославленного римского генерала Флавия.



Файл
Качество: BDRip (AVC)
Видео: MPEG-4 AVC, 2296 Кбит/с, 1024x576, 23.976 кадр/с
Аудио: Русский (AC3, 2 ch, 192 Кбит/с), (AC3, 6 ch, 448 Кбит/с), английский (AC3, 6 ch, 448 Кбит/с)
Размер: 4.37 ГБ
Продолжительность: 02:54:51
Перевод: Профессиональный многоголосый, авторский одноголосый
Субтитры: Русские, английские

Автор сборки - gogamel74

Аудио №1: Русский, AC3, 48 KHz, 2 ch, 192 kbps, 16 bit - (MVO - DVD R5)
Аудио №2: Русский, AC3, 48 KHz, 2 ch, 192 kbps, 16 bit - (MVO)
Аудио №3: Русский, AC3, 48 KHz, 6 ch, 448 kbps, 16 bit - (AVO - С.Визгунов)
Аудио №4: Английский, AC3, 48 KHz, 6 ch, 448 kbps, 16 bit - (Original)
Субтитры: Русские (Full), Английские (Full)
Сохранены оригинальные чаптеры (главы) как на Blu-Ray.

Отдельное спасибо - Прагматик - за предоставление материала.
За работу над дорогами №1,2 особая благодарность - Linger babe.
Дорожка №3 получена путем наложения чистого голоса на оригинал.

Семпл

Полное имя : Attila.2001.x264.BDRip.AVC.gogamel74.ExKinoRay.mkv
Формат : Matroska
Версия формата : Version 4 / Version 2
Размер файла : 4,37 Гбайт
Продолжительность : 2 ч. 54 м.
Общий поток : 3579 Кбит/сек
Название фильма : Attila.2001.x264.BDRip.AVC.gogamel74.ExKinoRay
Дата кодирования : UTC 2014-08-17 03:54:26
Программа кодирования : mkvmerge v7.1.0 ('Good Love') 64bit built on Jul 27 2014 13:06:55
Библиотека кодирования : libebml v1.3.0 + libmatroska v1.4.1
Обложка : Yes

Видео
Идентификатор : 1
Формат : AVC
Формат/Информация : Advanced Video Codec
Профиль формата : High@L4.1
Параметр CABAC формата : Да
Параметр ReFrames формата : 9 кадров
Идентификатор кодека : V_MPEG4/ISO/AVC
Продолжительность : 2 ч. 54 м.
Битрейт : 2296 Кбит/сек
Ширина : 1024 пикселя
Высота : 576 пикселей
Соотношение сторон : 16:9
Режим частоты кадров : Постоянный
Частота кадров : 23,976 кадра/сек
Цветовое пространство : YUV
Субдискретизация насыщенности : 4:2:0
Битовая глубина : 8 бит
Тип развёртки : Прогрессивная
Бит/(Пиксели*Кадры) : 0.162
Размер потока : 2,72 Гбайт (62%)
Заголовок : Attila
Библиотека кодирования : x264 core 142 r2431 ac76440
Настройки программы : cabac=1 / ref=9 / deblock=1:-3:-3 / analyse=0x3:0x133 / me=umh / subme=10 / psy=1 / psy_rd=1.00:0.20 / mixed_ref=1 / me_range=32 / chroma_me=1 / trellis=2 / 8x8dct=1 / cqm=0 / deadzone=21,11 / fast_pskip=0 / chroma_qp_offset=-3 / threads=8 / lookahead_threads=1 / sliced_threads=0 / nr=0 / decimate=0 / interlaced=0 / bluray_compat=0 / constrained_intra=0 / bframes=9 / b_pyramid=2 / b_adapt=2 / b_bias=0 / direct=3 / weightb=1 / open_gop=0 / weightp=2 / keyint=240 / keyint_min=23 / scenecut=40 / intra_refresh=0 / rc_lookahead=60 / rc=2pass / mbtree=1 / bitrate=2296 / ratetol=1.0 / qcomp=0.70 / qpmin=0 / qpmax=69 / qpstep=4 / cplxblur=20.0 / qblur=0.5 / vbv_maxrate=50000 / vbv_bufsize=62500 / nal_hrd=none / filler=0 / ip_ratio=1.40 / aq=1:1.00
Язык : English
Default : Да
Forced : Да

Аудио #1
Идентификатор : 2
Формат : AC-3
Формат/Информация : Audio Coding 3
Расширение режима : CM (complete main)
Параметр Endianness формата : Big
Идентификатор кодека : A_AC3
Продолжительность : 2 ч. 54 м.
Вид битрейта : Постоянный
Битрейт : 192 Кбит/сек
Каналы : 2 канала
Расположение каналов : Front: L R
Частота : 48,0 КГц
Битовая глубина : 16 бит
Метод сжатия : С потерями
Размер потока : 240 Мбайт (5%)
Заголовок : MVO - DVD R5
Язык : Russian
Default : Да
Forced : Да

Аудио #2
Идентификатор : 3
Формат : AC-3
Формат/Информация : Audio Coding 3
Расширение режима : CM (complete main)
Параметр Endianness формата : Big
Идентификатор кодека : A_AC3
Продолжительность : 2 ч. 54 м.
Вид битрейта : Постоянный
Битрейт : 192 Кбит/сек
Каналы : 2 канала
Расположение каналов : Front: L R
Частота : 48,0 КГц
Битовая глубина : 16 бит
Метод сжатия : С потерями
Размер потока : 240 Мбайт (5%)
Заголовок : MVO
Язык : Russian
Default : Нет
Forced : Нет

Аудио #3
Идентификатор : 4
Формат : AC-3
Формат/Информация : Audio Coding 3
Расширение режима : CM (complete main)
Параметр Endianness формата : Big
Идентификатор кодека : A_AC3
Продолжительность : 2 ч. 54 м.
Вид битрейта : Постоянный
Битрейт : 448 Кбит/сек
Каналы : 6 каналов
Расположение каналов : Front: L C R, Side: L R, LFE
Частота : 48,0 КГц
Битовая глубина : 16 бит
Метод сжатия : С потерями
Размер потока : 560 Мбайт (13%)
Заголовок : AVO - Vizgunov
Язык : Russian
Default : Нет
Forced : Нет

Аудио #4
Идентификатор : 5
Формат : AC-3
Формат/Информация : Audio Coding 3
Расширение режима : CM (complete main)
Параметр Endianness формата : Big
Идентификатор кодека : A_AC3
Продолжительность : 2 ч. 54 м.
Вид битрейта : Постоянный
Битрейт : 448 Кбит/сек
Каналы : 6 каналов
Расположение каналов : Front: L C R, Side: L R, LFE
Частота : 48,0 КГц
Битовая глубина : 16 бит
Метод сжатия : С потерями
Размер потока : 560 Мбайт (13%)
Заголовок : Original
Язык : English
Default : Нет
Forced : Нет

Текст #1
Идентификатор : 6
Формат : UTF-8
Идентификатор кодека : S_TEXT/UTF8
Идентификатор кодека/Информация : UTF-8 Plain Text
Заголовок : Full
Язык : Russian
Default : Нет
Forced : Нет

Текст #2
Идентификатор : 7
Формат : UTF-8
Идентификатор кодека : S_TEXT/UTF8
Идентификатор кодека/Информация : UTF-8 Plain Text
Заголовок : Full
Язык : English
Default : Нет
Forced : Нет

Меню
00:00:00.000 : en:Chapter 01
00:14:04.468 : en:Chapter 02
00:29:21.885 : en:Chapter 03
00:42:07.274 : en:Chapter 04
00:56:45.402 : en:Chapter 05
01:11:57.479 : en:Chapter 06
01:27:56.020 : en:Chapter 07
01:40:10.337 : en:Chapter 08
01:56:29.148 : en:Chapter 09
02:08:33.664 : en:Chapter 10
02:24:29.619 : en:Chapter 11
02:39:29.434 : en:Chapter 12




Релиз от:


_________________
Проголосуй за трекер Открытый торрент трекер - RUS-MEDIA.ORG

Проголосуй Открытый торрент трекер - RUS-MEDIA.ORG


Вернуться к началу
 Профиль Отправить личное сообщение  
 
   Похожие торренты   Автор   Торрент   Размер 
В этой теме нет новых непрочитанных сообщений. Кулл-завоеватель / Kull the Conqueror [Боевик, фэнтези, приключения, 1997] BDRip-AVC, Dvo

salma3

60 | 103

744.44 МБ

В этой теме нет новых непрочитанных сообщений. История рыцаря / A Knight's Tale [Приключения, исторический, боевик, 2001] BDRemux 1080p, Dub

salma3

5 | 8

26.4 ГБ

В этой теме нет новых непрочитанных сообщений. Кулл-завоеватель / Kull the Conqueror [Боевик, фэнтези, приключения, 1997] BDRemux 1080p, Mvo

salma3

63 | 23

12.25 ГБ

В этой теме нет новых непрочитанных сообщений. Кво Вадис / Камо Грядеши / Quo Vadis [Исторический, драма, 2001] BDRip 1080p, Mvo

salma3

98 | 31

7.56 ГБ

В этой теме нет новых непрочитанных сообщений. 13-й воин / The 13th Warrior [Боевик, Приключения, Исторический, 1999] BDRip 720p, Dub

salma3

18 | 3

7.83 ГБ

В этой теме нет новых непрочитанных сообщений. Чингиз Хан / Genghis Khan [Исторический, драма, приключения, 1965] BDRip 1080p, Mvo

salma3

3 | 2

12.39 ГБ

В этой теме нет новых непрочитанных сообщений. Кенау / Kenau [исторический, драма, боевик, приключения, 2014] HDRip, Mvo [Официальный]

salma3

165 | 30

1.46 ГБ


Начать новую тему Ответить на тему  [ 1 сообщение ] 




Для Мосгорсуда, Роскомнадзора и рекламодателей:: mosgorsud-torrent[собачка]yandex.ru
cron