Торрент файл
скачать торрент магнет ссылка Добавлен: 11 фев 2017, 22:25
Размер: 4.88 ГБ
Сидеров: 55
Личеров: 63
Статус: (salma3)
Автор

СообщениеДобавлено: 11 фев 2017, 22:25 

Не в сети
Супермодератор
Аватара пользователя
Дата регистрации:
15 фев 2012, 16:44
Возраст: 29
Спасибо: 7401 / 2147
Сообщения: 78391
Год выхода: 2002
Жанр: боевик, комедия, криминал
Режиссер: Том Дей /Tom Dey

В ролях: Роберт Де Ниро /Robert De Niro/, Эдди Мерфи /Eddie Murphy/, Рене Руссо /Rene Russo/, Педро Дэмиен /Pedro Damian/, Мос Деф /Mos Def/, Зэйд Фарил /Zaid Farid

О фильме:
Детектив департамента полиции Лос-Анджелеса Митч Престон — человек, не терпящий вздора, а также не отличающийся словоохотливостью, терпением и большим вкусом. Все, что ему надо, — это чтобы его оставили в покое, и он мог спокойно выполнять то, чем занимается на протяжении вот уже более двадцати лет, — свою работу.
Его абсолютная противоположность — патрульный офицер Трей Селларз. С бoльшим удовольствием он бы изображал полицейского на экране, нежели выполнял его прямые обязанности в реальной жизни. Днем он разгоняет карманных воров, а вечером репетирует эффектные выпады перед зеркалом, и все это в ожидании события, которое изменит всю его жизнь.
Как-то ночью Трей оказывается случайным свидетелем тайной операции Митча по обезвреживанию банды наркоторговцев и невольно срывает ее. А несколько мгновений спустя ночную мглу разрезают вспышки фотокамер, и телевизионная бригада новостей врывается на место действия, уже окончательно и бесповоротно лишая Митча возможности догнать беглецов.
Волею судеб Митч оказывается в поле зрения телевизионного продюсера Чейзы Рензи. Для Митча — это ад на земле. Для Трея — мечта, ставшая реальностью.



Страна: США
Продолжительность: 01:35:21
Перевод: Профессиональный (дублированный), Профессиональный (двухголосый закадровый), Авторский (В.Рукин), Авторский (С. Визгунов), Авторский (Славянин)

Файл
Качество: WEB-DL 720p
Контейнер: MKV
Видео: MPEG-4 AVC, 5274 Кбит/с, 1920x1080, 23.976 Кадр/с
Звук:
Dolby Digital Audio Russian 384 kbps 5.1 / 48 kHz / 384 kbps / DN -4dB - Дублированный (R5)
Dolby Digital Audio Russian 384 kbps 5.1 / 48 kHz / 384 kbps / DN -4dB - Профессиональный двухголосый
Dolby Digital Audio Russian 448 kbps 5.1 / 48 kHz / 448 kbps / DN -4dB - Авторский одноголосый (В. Рукин)
Dolby Digital Audio Russian 192 kbps 2.0 / 48 kHz / 192 kbps / DN -4dB - Авторский одноголосый (С. Визгунов)
Dolby Digital Audio Russian 192 kbps 2.0 / 48 kHz / 192 kbps / DN -4dB - Авторский одноголосый (Славянин)
Dolby Digital Audio English 448 kbps 5.1 / 48 kHz / 448 kbps
Субтитры: русские, английские

Релиз от:

За исходные 1-3 дорожки спасибо лорди74
За оцифрованную с VHS дорожку С. Визгунова спасибо d_rocker
Дорожка с С. Визгуновым синхронизирована и наложена на L, R каналы декодированного AC3 ale_x2008
За дорожку с переводом Славянина спасибо _Palych_
Оригинал в 2.0 с исходника заменен на честные 5.1
Формат : Matroska
Версия формата : Version 4 / Version 2
Размер файла : 4,88 Гбайт
Продолжительность : 1 ч. 35 м.
Режим общего битрейта : Переменный
Общий поток : 7324 Кбит/сек
Название фильма : Showtime.2002.x264.WEB-DL.1080p.BLUEBIRD
Дата кодирования : UTC 2017-02-11 13:30:22
Программа кодирования : mkvmerge v7.9.0 ('Birds') 32bit
Библиотека кодирования : libebml v1.3.1 + libmatroska v1.4.2

Видео
Идентификатор : 1
Формат : AVC
Формат/Информация : Advanced Video Codec
Профиль формата : Main@L4
Параметр CABAC формата : Да
Параметр ReFrames формата : 2 кадра
Идентификатор кодека : V_MPEG4/ISO/AVC
Продолжительность : 1 ч. 35 м.
Вид битрейта : Переменный
Битрейт : 5274 Кбит/сек
Максимальный битрейт : 768 Кбит/сек
Ширина : 1920 пикселей
Высота : 1080 пикселей
Соотношение сторон : 16:9
Режим частоты кадров : Постоянный
Частота кадров : 23,976 (23976/1000) кадра/сек
Частота кадров в оригинале : 23,976 (24000/1001) кадра/сек
Цветовое пространство : YUV
Субдискретизация насыщенности : 4:2:0
Битовая глубина : 8 бит
Тип развёртки : Прогрессивная
Бит/(Пиксели*Кадры) : 0.106
Размер потока : 3,51 Гбайт (72%)
Заголовок : Showtime.2002.x264.WEB-DL.1080p.BLUEBIRD
Язык : English
Default : Да
Forced : Нет

Аудио #1
Идентификатор : 2
Формат : AC-3
Формат/Информация : Audio Coding 3
Расширение режима : CM (complete main)
Параметр Endianness формата : Big
Идентификатор кодека : A_AC3
Продолжительность : 1 ч. 35 м.
Вид битрейта : Постоянный
Битрейт : 384 Кбит/сек
Каналы : 6 каналов
Расположение каналов : Front: L C R, Side: L R, LFE
Частота : 48,0 КГц
Частота кадров : 31,250 кадров/сек (1536 spf)
Битовая глубина : 16 бит
Метод сжатия : С потерями
Размер потока : 262 Мбайт (5%)
Заголовок : Дублированный (R5)
Язык : Russian
Default : Да
Forced : Нет

Аудио #2
Идентификатор : 3
Формат : AC-3
Формат/Информация : Audio Coding 3
Расширение режима : CM (complete main)
Параметр Endianness формата : Big
Идентификатор кодека : A_AC3
Продолжительность : 1 ч. 35 м.
Вид битрейта : Постоянный
Битрейт : 384 Кбит/сек
Каналы : 6 каналов
Расположение каналов : Front: L C R, Side: L R, LFE
Частота : 48,0 КГц
Частота кадров : 31,250 кадров/сек (1536 spf)
Битовая глубина : 16 бит
Метод сжатия : С потерями
Размер потока : 262 Мбайт (5%)
Заголовок : Профессиональный двухголосый
Язык : Russian
Default : Нет
Forced : Нет

Аудио #3
Идентификатор : 4
Формат : AC-3
Формат/Информация : Audio Coding 3
Расширение режима : CM (complete main)
Параметр Endianness формата : Big
Идентификатор кодека : A_AC3
Продолжительность : 1 ч. 35 м.
Вид битрейта : Постоянный
Битрейт : 448 Кбит/сек
Каналы : 6 каналов
Расположение каналов : Front: L C R, Side: L R, LFE
Частота : 48,0 КГц
Частота кадров : 31,250 кадров/сек (1536 spf)
Битовая глубина : 16 бит
Метод сжатия : С потерями
Размер потока : 306 Мбайт (6%)
Заголовок : Авторский одноголосый (В. Рукин)
Язык : Russian
Default : Нет
Forced : Нет

Аудио #4
Идентификатор : 5
Формат : AC-3
Формат/Информация : Audio Coding 3
Расширение режима : CM (complete main)
Параметр Endianness формата : Big
Идентификатор кодека : A_AC3
Продолжительность : 1 ч. 35 м.
Вид битрейта : Постоянный
Битрейт : 192 Кбит/сек
Каналы : 2 канала
Расположение каналов : Front: L R
Частота : 48,0 КГц
Частота кадров : 31,250 кадров/сек (1536 spf)
Битовая глубина : 16 бит
Метод сжатия : С потерями
Размер потока : 131 Мбайт (3%)
Заголовок : Авторский одноголосый (С. Визгунов)
Язык : Russian
Default : Нет
Forced : Нет

Аудио #5
Идентификатор : 6
Формат : AC-3
Формат/Информация : Audio Coding 3
Расширение режима : CM (complete main)
Параметр Endianness формата : Big
Идентификатор кодека : A_AC3
Продолжительность : 1 ч. 35 м.
Вид битрейта : Постоянный
Битрейт : 192 Кбит/сек
Каналы : 2 канала
Расположение каналов : Front: L R
Частота : 48,0 КГц
Частота кадров : 31,250 кадров/сек (1536 spf)
Битовая глубина : 16 бит
Метод сжатия : С потерями
Размер потока : 131 Мбайт (3%)
Заголовок : Авторский одноголосый (Славянин)
Язык : Russian
Default : Нет
Forced : Нет

Аудио #6
Идентификатор : 7
Формат : AC-3
Формат/Информация : Audio Coding 3
Расширение режима : CM (complete main)
Параметр Endianness формата : Big
Идентификатор кодека : A_AC3
Продолжительность : 1 ч. 35 м.
Вид битрейта : Постоянный
Битрейт : 448 Кбит/сек
Каналы : 6 каналов
Расположение каналов : Front: L C R, Side: L R, LFE
Частота : 48,0 КГц
Частота кадров : 31,250 кадров/сек (1536 spf)
Битовая глубина : 16 бит
Метод сжатия : С потерями
Размер потока : 306 Мбайт (6%)
Язык : English
Default : Нет
Forced : Нет

Текст #1
Идентификатор : 8
Формат : UTF-8
Идентификатор кодека : S_TEXT/UTF8
Идентификатор кодека/Информация : UTF-8 Plain Text
Продолжительность : 1 ч. 30 м.
Битрейт : 88 бит/сек
Count of elements : 1097
Размер потока : 58,3 Кбайт (0%)
Заголовок : full
Язык : Russian
Default : Нет
Forced : Нет

Текст #2
Идентификатор : 9
Формат : UTF-8
Идентификатор кодека : S_TEXT/UTF8
Идентификатор кодека/Информация : UTF-8 Plain Text
Продолжительность : 1 ч. 30 м.
Битрейт : 65 бит/сек
Count of elements : 1109
Размер потока : 43,1 Кбайт (0%)
Заголовок : full
Язык : English
Default : Нет
Forced : Нет

Меню
00:00:00.000 : en:Two cops at work.
00:04:28.000 : en:Suspicious activity.
00:08:28.000 : en:Guns and cuffs out.
00:11:42.000 : en:Camera unfriendly.
00:13:29.000 : en:The guy's a series.
00:16:09.000 : en:Star of the show.
00:20:12.000 : en:Anger for lunch.
00:22:53.000 : en:Street audition.
00:27:07.000 : en:Cool with Lazy Boy.
00:30:16.000 : en:TV cop's arsenal.
00:34:51.000 : en:Speech for speech.
00:37:33.000 : en:Crucial evidence.
00:40:36.000 : en:Surprise guy time.
00:43:40.000 : en:Auto show.
00:46:06.000 : en:Showtime.
00:52:01.000 : en:Justice Channel guy.
00:59:11.000 : en:Club Cuba Loca.
01:03:24.000 : en:Trey's Resume.
01:05:35.000 : en:Sympathetic decor.
01:07:25.000 : en:Cut to the chase.
01:11:53.000 : en:Good hood jumping.
01:13:36.000 : en:Broken apart.
01:17:14.000 : en:Face and voice recognition.
01:21:13.000 : en:Gun show gunplay.
01:24:10.000 : en:Shot by the camera.
01:27:08.000 : en:Wet and dry bondings
01:29:49.000 : en:Bloopers (Showtime).
01:31:17.000 : en:End Credits (Swingin).


_________________
Проголосуй за трекер Открытый торрент трекер - RUS-MEDIA.ORG

Проголосуй Открытый торрент трекер - RUS-MEDIA.ORG


Вернуться к началу
 Профиль Отправить личное сообщение  
 
   Похожие торренты   Автор   Торрент   Размер 
В этой теме нет новых непрочитанных сообщений. Шоу начинается / Showtime [боевик, комедия, криминал, 2002] WEB-DL 1080p, Dub+Dvo+Avo+Sub

salma3

26 | 1

4.88 ГБ

В этой теме нет новых непрочитанных сообщений. Шоу начинается / Showtime [боевик, комедия, криминал, 2002] WEB-DLRip-AVC, Dub

salma3

49 | 29

1.45 ГБ

В этой теме нет новых непрочитанных сообщений. Шоу начинается / Showtime [боевик, комедия, криминал, 2002] WEB-DLRip-AVC, Dub

salma3

34 | 4

3.21 ГБ

В этой теме нет новых непрочитанных сообщений. Шоу начинается / Showtime (2018) WEBRip

salma3

89 | 10

1.49 ГБ

В этой теме нет новых непрочитанных сообщений. Все только начинается / Just Getting Started [Боевик, комедия, 2017] BDRip 1080p, Dub [iTunes]

salma3

49 | 11

8.33 ГБ

В этой теме нет новых непрочитанных сообщений. Все только начинается / Just Getting Started [Боевик, комедия, 2017] BDRemux 1080p, Dub [iTunes]

salma3

0 | 3

24.74 ГБ

В этой теме нет новых непрочитанных сообщений. Дави на газ! / Gamle mænd i nye biler [Боевик, комедия, криминал, 2002] ВDRemux 1080p, Dvo

salma3

33 | 11

17.87 ГБ


Начать новую тему Ответить на тему  [ 1 сообщение ] 




Для Мосгорсуда, Роскомнадзора и рекламодателей:: mosgorsud-torrent[собачка]yandex.ru
cron