Торрент файл
скачать торрент магнет ссылка Добавлен: 16 фев 2017, 12:44
Размер: 3.74 ГБ
Сидеров: 39
Личеров: 22
Статус: (salma3)
Автор

СообщениеДобавлено: 16 фев 2017, 12:44 

Не в сети
Супермодератор
Аватара пользователя
Дата регистрации:
15 фев 2012, 16:44
Возраст: 29
Спасибо: 7400 / 2147
Сообщения: 78391
Год выхода: 1964
Жанр: мелодрама, комедия
Режиссер: Хоуард Хоукс / Howard Hawks

В ролях: Рок Хадсон, Пола Прентисс, Мария Перши, Джон МакГайвер, Шарлин Холт, Роско Карнс, Джеймс Уэстерфилд, Норман Элден, Форрест Льюис, Режис Туми

О фильме: Роджер Уиллоуби работает в магазине спортивных товаров и является автором хорошо продаваемого самоучителя по рыбной ловле. Роджеру удалось написать этот бестселлер, ни разу не побывав на рыбалке. Но однажды настойчивая, если не сказать настырная, девушка по имени Эбби вовлекает Роджера в соревнование рыбаков, а такому «профессионалу» негоже их проигрывать…



Страна: США
Студия: Universal Pictures

Продолжительность: 02:00:08
Перевод: Профессиональный (многоголосый, закадровый)
Cубтитры : Английский

Контейнер: MKV
Качество: WEB-DL 720p
Видео: MPEG-4 AVC, High@L3.1, 4 034 kb/s, 1 280 x 688, 23.976 fps
Аудио 1 : Русский (AC3, 2ch, 192 kb/s, 48.0 KHz) MVO
Аудио 2 : Английский (AC3, 2ch, 224 kb/s, 48.0 KHz)
Субтитры : English SRT

Навигация по главам: есть
Глобальные тэги: есть

Общее
Уникальный идентификатор : 250299561941347279148623792109918549276 (0xBC4DF13026CE229E980158BF1E92F51C)
Полное имя : E:Man's Favorite Sport.mkv
Формат : Matroska
Версия формата : Version 4 / Version 2
Размер файла : 3,74 Гбайт
Продолжительность : 2 ч. 0 м.
Общий поток : 4452 Кбит/сек
Название фильма : Man's Favorite Sport?
Тип содержимого : Movie
Описание : It takes a girl to supply the answer!
Дата выпуска : 1964-01-29
Дата кодирования : UTC 2017-02-13 18:39:17
Программа кодирования : mkvmerge v9.8.0 ('Kuglblids') 64bit
Библиотека кодирования : libebml v1.3.4 + libmatroska v1.4.5
Обложка : Yes
Attachments : cover.jpg
ACTOR : Rock Hudson, Paula Prentiss, Maria Perschy, John McGiver, Charlene Holt, Roscoe Karns, James Westerfield, Norman Alden, Forrest Lewis, Regis Toomey
ARTIST : Rock Hudson, Paula Prentiss, Maria Perschy, John McGiver, Charlene Holt, Roscoe Karns, James Westerfield, Norman Alden, Forrest Lewis, Regis Toomey
DIRECTOR : Ховард Хоукс
GENRE : Comedy, Romance
LAW_RATING : e Livre
PRODUCER : Ховард Хоукс, Пол Хелмик
PRODUCTION_STUDIO : Laurel Productions
SCREENPLAY_BY : Джон Фентон Мюррэй, Стив МаНил, Пэт Фрэнк
SUMMARY : It takes a girl to supply the answer!
SYNOPSIS : Rock Hudson is Roger Willoughby, a renowned fishing expert, who, unbeknownst to his friends, co-workers, or boss, has never cast a line in his life. One day, he crosses paths with Abigail Paige (Paula Prentiss), a sweetly annoying girl who has just badgered his boss into signing Roger up for an annual fishing tournament.

Видео
Идентификатор : 1
Формат : AVC
Формат/Информация : Advanced Video Codec
Профиль формата : High@L3.1
Параметр CABAC формата : Нет
Параметр ReFrames формата : 2 кадра
Идентификатор кодека : V_MPEG4/ISO/AVC
Продолжительность : 2 ч. 0 м.
Битрейт : 4034 Кбит/сек
Ширина : 1280 пикселей
Высота : 688 пикселей
Соотношение сторон : 1,85:1
Режим частоты кадров : Постоянный
Частота кадров : 23,976 (24000/1001) кадра/сек
Цветовое пространство : YUV
Субдискретизация насыщенности : 4:2:0
Битовая глубина : 8 бит
Тип развёртки : Прогрессивная
Бит/(Пиксели*Кадры) : 0.191
Размер потока : 3,38 Гбайт (91%)
Заголовок : Mans.Favorite.Sport.1964.720p.WEB-DL.AAC2.0.H264-FGT
Язык : English
Default : Да
Forced : Нет
Цветовой диапазон : Limited
Основные цвета : BT.709
Характеристики трансфера : BT.709
Коэффициенты матрицы : BT.709

Аудио #1
Идентификатор : 2
Формат : AC-3
Формат/Информация : Audio Coding 3
Расширение режима : CM (complete main)
Параметр Endianness формата : Big
Идентификатор кодека : A_AC3
Продолжительность : 2 ч. 0 м.
Вид битрейта : Постоянный
Битрейт : 192 Кбит/сек
Каналы : 2 канала
Расположение каналов : Front: L R
Частота : 48,0 КГц
Частота кадров : 31,250 кадров/сек (1536 spf)
Битовая глубина : 16 бит
Метод сжатия : С потерями
Размер потока : 165 Мбайт (4%)
Заголовок : MVO
Язык : Russian
Default : Да
Forced : Нет

Аудио #2
Идентификатор : 3
Формат : AC-3
Формат/Информация : Audio Coding 3
Расширение режима : CM (complete main)
Параметр Endianness формата : Big
Идентификатор кодека : A_AC3
Продолжительность : 2 ч. 0 м.
Вид битрейта : Постоянный
Битрейт : 224 Кбит/сек
Каналы : 2 канала
Расположение каналов : Front: L R
Частота : 48,0 КГц
Частота кадров : 31,250 кадров/сек (1536 spf)
Битовая глубина : 16 бит
Метод сжатия : С потерями
Размер потока : 192 Мбайт (5%)
Заголовок : AC-3
Язык : English
Default : Нет
Forced : Нет

Текст
Идентификатор : 4
Формат : UTF-8
Идентификатор кодека : S_TEXT/UTF8
Идентификатор кодека/Информация : UTF-8 Plain Text
Продолжительность : 1 ч. 59 м.
Битрейт : 80 бит/сек
Count of elements : 1688
Размер потока : 70,6 Кбайт (0%)
Заголовок : SRT
Язык : English
Default : Да
Forced : Нет

Меню
00:00:00.000 : en:Chapter 01
00:02:02.331 : en:Chapter 02
00:07:45.468 : en:Chapter 03
00:12:21.787 : en:Chapter 04
00:21:45.645 : en:Chapter 05
00:27:59.312 : en:Chapter 06
00:41:23.996 : en:Chapter 07
00:56:14.641 : en:Chapter 08
01:03:26.700 : en:Chapter 09
01:13:38.356 : en:Chapter 10
01:19:56.570 : en:Chapter 11
01:26:54.281 : en:Chapter 12
01:30:31.374 : en:Chapter 13
01:38:28.020 : en:Chapter 14
01:41:28.618 : en:Chapter 15
01:47:08.793 : en:Chapter 16
01:54:43.667 : en:Chapter 17
01:58:39.779 : en:Chapter 18


_________________
Проголосуй за трекер Открытый торрент трекер - RUS-MEDIA.ORG

Проголосуй Открытый торрент трекер - RUS-MEDIA.ORG


Вернуться к началу
 Профиль Отправить личное сообщение  
 
   Похожие торренты   Автор   Торрент   Размер 
В этой теме нет новых непрочитанных сообщений. Любимый спорт мужчин / Man's Favorite Sport? [мелодрама, комедия, 1964] WEB-DLRip, Mvo

salma3

46 | 3

1.46 ГБ

В этой теме нет новых непрочитанных сообщений. Любимый спорт мужчин / Man's Favorite Sport? [комедия, мелодрама, 1964] WEB-DL 1080p, Mvo

salma3

12 | 5

10.11 ГБ

В этой теме нет новых непрочитанных сообщений. Мой любимый марсианин / My Favorite Martian [фантастика, комедия, семейный, 1999] WEBRip 1080p, Dub

salma3

59 | 16

9.78 ГБ

В этой теме нет новых непрочитанных сообщений. Мой любимый призрак [01-02 из 02] [Комедия, мистика, мелодрама, 2017] WEB-DL 720p

salma3

0 | 0

2.23 ГБ

В этой теме нет новых непрочитанных сообщений. Секс и незамужняя девушка / Sex and the single girl [Комедия, Мелодрама, 1964] WEB-DLRip 720p, Dvo

salma3

0 | 0

3.25 ГБ

В этой теме нет новых непрочитанных сообщений. Мой любимый призрак [01-02 из 02] [Комедия, мистика, мелодрама, 2017] SATRip

salma3

8 | 1

1.37 ГБ

В этой теме нет новых непрочитанных сообщений. Мой любимый призрак [01-02 из 02] [Комедия, мистика, мелодрама, 2017] WEB-DLRip

salma3

24 | 10

1.17 ГБ


Начать новую тему Ответить на тему  [ 1 сообщение ] 




Для Мосгорсуда, Роскомнадзора и рекламодателей:: mosgorsud-torrent[собачка]yandex.ru
cron