Торрент файл
скачать торрент магнет ссылка Добавлен: 28 фев 2017, 13:56
Размер: 14.59 ГБ
Сидеров: 29
Личеров: 23
Статус: (salma3)
Автор

СообщениеДобавлено: 28 фев 2017, 13:56 

Не в сети
Супермодератор
Аватара пользователя
Дата регистрации:
15 фев 2012, 16:44
Возраст: 29
Спасибо: 7435 / 2147
Сообщения: 80360
Год выпуска: 2007
Жанр: триллер, драма, детектив
Режиссер: Вадим Перельман

В ролях: Ума Турман, Эван Рэйчел Вуд, Ева Амурри, Гэбриэлль Бреннан, Бретт Каллен, Оскар Айзек, Джек Гилпин, Мэгги Лэйси, Линн Коэн

Описание:15 лет назад Диана выжила после массового убийства, произошедшего в американском колледже. Сегодня она типичная домохозяйка, взрослая замужняя женщина, воспитывающая восьмилетнюю дочь, но сомнения в устроенности своей жизни не проходят. В своих воспоминаниях Диана видит себя по-прежнему старшеклассницей, вместе с застенчивой подружкой Морин предающейся типичным девичьим фантазиями о парнях и светлом будущем. Но что-то не дает Диане покоя. Что-то, связанное с Морин и случившееся в день перестрелки...



Страна: США
Продолжительность01:29:39
Перевод: Профессиональный (многоголосый, закадровый)[R5]
Субтитры: русские, английские

Качество:BDRemux 1080p
Видео: 1920x1080 (16:9), 23.976 fps, MPEG-4 AVC ~18.7 Мbps avg
Аудио №1: 48.0 kHz, AC3 Dolby Digital, 3/2 (L,C,R,l,r) + LFE ch, ~448 | МVO / R5
Аудио №2: 48.0 kHz, Digital Theater Systems, 3/2 (L,C,R,l,r) + LFE ch, ~1509 kbps / 24-bit | ENG
Аудио №3: 48.0 kHz, AC3 Dolby Digital, 2/0 (L,R) ch, ~224 | ENG / Commentary by Director and Production designer
Формат субтитров: UTF-8 Plain Text

General
Уникальный идентификатор : 230137626535654766956251349997932649587 (0xAD22E5064F2ED3928E812457AF421C73)
Полное имя : Life Before Her Eyes.2007.BD.Remux.1080p.h264.Rus.Eng.Commentary.mkv
Формат : Matroska
Версия формата : Version 1
Размер файла : 14,6 Гбайт
Продолжительность : 1 ч. 29 м.
Режим общего битрейта : Переменный
Общий поток : 23,3 Мбит/сек
Дата кодирования : UTC 2008-10-14 12:54:29
Программа кодирования : mkvmerge v2.4.0 ('Fumbling Towards Ecstasy') built on Oct 11 2008 20:13:15
Библиотека кодирования : libebml v0.7.7 + libmatroska v0.8.1

Видео
Идентификатор : 1
Формат : AVC
Формат/Информация : Advanced Video Codec
Профиль формата : High@L4.1
Параметр CABAC формата : Да
Параметр ReFrames формата : 4 кадра
Параметр GOP формата : M=3, N=12
Режим смешивания : Container profile=@0.0
Идентификатор кодека : V_MPEG4/ISO/AVC
Продолжительность : 1 ч. 29 м.
Вид битрейта : Переменный
Максимальный битрейт : 37,0 Мбит/сек
Ширина : 1920 пикселей
Высота : 1080 пикселей
Соотношение сторон : 16:9
Режим частоты кадров : Постоянный
Частота кадров : 23,976 (24000/1001) кадра/сек
Цветовое пространство : YUV
Субдискретизация насыщенности : 4:2:0
Битовая глубина : 8 бит
Тип развёртки : Прогрессивная
Язык : English
Default : Да
Forced : Нет
Цветовой диапазон : Limited
Основные цвета : BT.709
Характеристики трансфера : BT.709
Коэффициенты матрицы : BT.709

Аудио #1
Идентификатор : 2
Формат : AC-3
Формат/Информация : Audio Coding 3
Расширение режима : CM (complete main)
Параметр Endianness формата : Big
Идентификатор кодека : A_AC3
Продолжительность : 1 ч. 29 м.
Вид битрейта : Постоянный
Битрейт : 448 Кбит/сек
Каналы : 6 каналов
Расположение каналов : Front: L C R, Side: L R, LFE
Частота : 48,0 КГц
Частота кадров : 31,250 кадров/сек (1536 spf)
Битовая глубина : 16 бит
Метод сжатия : С потерями
Размер потока : 287 Мбайт (2%)
Заголовок : AC3 5.1 448 kbps
Язык : Russian
Default : Да
Forced : Нет

Аудио #2
Идентификатор : 3
Формат : DTS
Формат/Информация : Digital Theater Systems
Профиль формата : MA / Core
Режим : 16
Параметр Endianness формата : Big
Идентификатор кодека : A_DTS
Продолжительность : 1 ч. 29 м.
Вид битрейта : Переменный / Постоянный
Битрейт : Неизвестно / 1509 Кбит/сек
Каналы : 6 каналов
Расположение каналов : Front: L C R, Side: L R, LFE
Частота : 48,0 КГц
Частота кадров : 93,750 кадра/сек (512 spf)
Битовая глубина : 24 бит
Метод сжатия : Без потерь / Lossy
Заголовок : DTS-HD Master Audio 5.1 3558 kbps Lossless
Язык : English
Default : Нет
Forced : Нет

Аудио #3
Идентификатор : 4
Формат : AC-3
Формат/Информация : Audio Coding 3
Профиль формата : Dolby Digital
Расширение режима : CM (complete main)
Параметр Endianness формата : Big
Идентификатор кодека : A_AC3
Продолжительность : 1 ч. 29 м.
Вид битрейта : Постоянный
Битрейт : 224 Кбит/сек
Каналы : 2 канала
Расположение каналов : Front: L R
Частота : 48,0 КГц
Частота кадров : 31,250 кадров/сек (1536 spf)
Битовая глубина : 16 бит
Метод сжатия : С потерями
Размер потока : 144 Мбайт (1%)
Заголовок : Commentary by Director and Production designer AC3 2.0 224 kbps
Язык : English
Default : Нет
Forced : Нет

Текст #1
Идентификатор : 5
Формат : UTF-8
Идентификатор кодека : S_TEXT/UTF8
Идентификатор кодека/Информация : UTF-8 Plain Text
Язык : Russian
Default : Нет
Forced : Нет

Текст #2
Идентификатор : 6
Формат : UTF-8
Идентификатор кодека : S_TEXT/UTF8
Идентификатор кодека/Информация : UTF-8 Plain Text
Язык : English
Default : Нет
Forced : Нет


_________________
Проголосуй за трекер Открытый торрент трекер - RUS-MEDIA.ORG

Проголосуй Открытый торрент трекер - RUS-MEDIA.ORG


Вернуться к началу
 Профиль Отправить личное сообщение  
 
   Похожие торренты   Автор   Торрент   Размер 
В этой теме нет новых непрочитанных сообщений. С широко закрытыми глазами / Eyes Wide Shut [триллер, драма, детектив, 1999] BDRemux 1080p, Mvo

salma3

9 | 10

29.69 ГБ

В этой теме нет новых непрочитанных сообщений. Подстава / Жизнь и смерть Бобби Зи / The Death and Life of Bobby Z [боевик, триллер, драма, криминал, 2007] BDRemux 1080p, Mvo

salma3

17 | 9

19.34 ГБ

В этой теме нет новых непрочитанных сообщений. У холмов есть глаза 2 / The Hills Have Eyes II [Ужасы, триллер, 2007] BDRemux 1080p, Dub [Unrated]

salma3

8 | 4

17.93 ГБ

В этой теме нет новых непрочитанных сообщений. Сладости жизни / Life Is Sweet [драма, комедия, 1990] BDRemux 1080р, Dvo

salma3

14 | 4

26.97 ГБ

В этой теме нет новых непрочитанных сообщений. Доказательство жизни / Proof of Life [боевик, триллер, драма, 2000] WEB-DL 1080p, Dub [Open Matte]

salma3

10 | 7

11.63 ГБ

В этой теме нет новых непрочитанных сообщений. Предчувствие / Premonition [Триллер, драма, детектив, 2007] BDRemux 1080p, Dub

salma3

0 | 0

18.84 ГБ

В этой теме нет новых непрочитанных сообщений. Лара Крофт: Расхитительница гробниц 2 - Колыбель жизни / Lara Croft Tomb Raider: The Cradle of Life [фэнтези, боевик, приключения, 2003] BDRemux 1080p, Dub

salma3

6 | 2

18.87 ГБ


Начать новую тему Ответить на тему  [ 1 сообщение ] 




Для Мосгорсуда, Роскомнадзора и рекламодателей:: mosgorsud-torrent[собачка]yandex.ru
cron