Торрент файл
скачать торрент магнет ссылка Добавлен: 11 мар 2017, 12:58
Размер: 4.58 ГБ
Сидеров: 54
Личеров: 96
Статус: (salma3)
Автор

СообщениеДобавлено: 11 мар 2017, 12:58 

Не в сети
Супермодератор
Аватара пользователя
Дата регистрации:
15 фев 2012, 16:44
Возраст: 29
Спасибо: 7433 / 2147
Сообщения: 80216
Год выхода: 1991
Жанр: триллер, мелодрама, комедия
Режиссер: Джонатан Уэкс

В ролях: Итан Хоук, Тери Поло, Брайан МакНамара, Фишер Стивенс, Б.Д. Вонг, Тони Розато, Дон С. Дэвис, Джеймс Хонг, Виктор Вонг, Пин Ву

О фильме:
Родители Тома МакХью уехали на недельку, и он понял, что если, наконец-то, не познакомится с очаровательной Джиной Мэттьюс, то, скорее всего, не познакомится уже никогда, потому что, как говорят американцы, шанс не стучится дважды. А тут, к счастью для Тома, наведался домой и его старший брат Крэйг, студент университета в другом городе. Крэйг взял всю подготовительную часть на себя: созвонился с Джиной, порылся в выброшенном ею пакете с мусором и сделал кое-какие выводы о ее образе жизни, подбросил Тому деньжат и свои документы…



Страна: США
Продолжительность: 01:38:22
Перевод: Профессиональный (двухголосый, закадровый) HTB+ + Авторский (одноголосый, закадровый) А.Гаврилов

Файл
Формат: Matroska
Качество: BDRip 720p
Видео: 1280x696 at 23.976 fps, x264@L4.1, ~4778 kbps avg
Aудио#1: Russian: 48 kHz, AС3, 2/0 (L,R) ch, ~192 kbps avg |Двухголосый закадровый, HTB+|
Aудио#2: Russian: 48 kHz, AС3, 2/0 (L,R) ch, ~192 kbps avg |Авторский, А.Гаврилов|
Aудио#3: English: 48 kHz, DTS, 2/0 (L,R) ch, ~1509 kbps avg
Субтитры: English, Spanish

***Сохранены оригинальные главы как на Blu-ray.
***Релиз - whalekilla.

Общее
Уникальный идентификатор : 236616467609531537158533635068143119064 (0xB202AC8D4229EDC9AB61F8214CB4AAD8)
Полное имя : Mystery.Date1991.BDRip.(720p).mkv
Формат : Matroska
Версия формата : Version 4 / Version 2
Размер файла : 4,58 Гбайт
Продолжительность : 1 ч. 38 м.
Общий поток : 6672 Кбит/сек
Название фильма : Mystery Date (1991)
Дата кодирования : UTC 2017-03-10 17:23:02
Программа кодирования : mkvmerge v6.9.1 ('Blue Panther') 64bit built on Apr 18 2014 18:23:38
Библиотека кодирования : libebml v1.3.0 + libmatroska v1.4.1

Видео
Идентификатор : 1
Формат : AVC
Формат/Информация : Advanced Video Codec
Профиль формата : High@L4.1
Параметр CABAC формата : Да
Параметр ReFrames формата : 9 кадров
Идентификатор кодека : V_MPEG4/ISO/AVC
Продолжительность : 1 ч. 38 м.
Битрейт : 4778 Кбит/сек
Ширина : 1280 пикселей
Высота : 696 пикселей
Соотношение сторон : 1,85:1
Режим частоты кадров : Постоянный
Частота кадров : 23,976 кадра/сек
Цветовое пространство : YUV
Субдискретизация насыщенности : 4:2:0
Битовая глубина : 8 бит
Тип развёртки : Прогрессивная
Бит/(Пиксели*Кадры) : 0.224
Размер потока : 3,19 Гбайт (70%)
Заголовок : Mystery Date (1991)
Библиотека кодирования : x264 core 148 r2638 7599210
Настройки программы : cabac=1 / ref=9 / deblock=1:-3:-3 / analyse=0x3:0x133 / me=umh / subme=11 / psy=1 / psy_rd=1.00:0.00 / mixed_ref=1 / me_range=32 / chroma_me=1 / trellis=2 / 8x8dct=1 / cqm=0 / deadzone=21,11 / fast_pskip=1 / chroma_qp_offset=-2 / threads=6 / lookahead_threads=1 / sliced_threads=0 / nr=0 / decimate=1 / interlaced=0 / bluray_compat=0 / constrained_intra=0 / bframes=5 / b_pyramid=2 / b_adapt=2 / b_bias=0 / direct=3 / weightb=1 / open_gop=0 / weightp=2 / keyint=240 / keyint_min=23 / scenecut=40 / intra_refresh=0 / rc_lookahead=60 / rc=2pass / mbtree=1 / bitrate=4778 / ratetol=1.0 / qcomp=0.60 / qpmin=0 / qpmax=69 / qpstep=4 / cplxblur=20.0 / qblur=0.5 / vbv_maxrate=50000 / vbv_bufsize=62500 / nal_hrd=none / filler=0 / ip_ratio=1.40 / aq=1:1.00
Язык : English
Default : Да
Forced : Нет

Аудио #1
Идентификатор : 2
Формат : AC-3
Формат/Информация : Audio Coding 3
Расширение режима : CM (complete main)
Параметр Endianness формата : Big
Идентификатор кодека : A_AC3
Продолжительность : 1 ч. 38 м.
Вид битрейта : Постоянный
Битрейт : 192 Кбит/сек
Каналы : 2 канала
Расположение каналов : Front: L R
Частота : 48,0 КГц
Битовая глубина : 16 бит
Метод сжатия : С потерями
Размер потока : 135 Мбайт (3%)
Заголовок : AC3, 2 ch, 192 Kbps, DVO, 'HTB+'
Язык : Russian
Default : Да
Forced : Нет

Аудио #2
Идентификатор : 3
Формат : AC-3
Формат/Информация : Audio Coding 3
Расширение режима : CM (complete main)
Параметр Endianness формата : Big
Идентификатор кодека : A_AC3
Продолжительность : 1 ч. 38 м.
Вид битрейта : Постоянный
Битрейт : 192 Кбит/сек
Каналы : 2 канала
Расположение каналов : Front: L R
Частота : 48,0 КГц
Битовая глубина : 16 бит
Метод сжатия : С потерями
Размер потока : 135 Мбайт (3%)
Заголовок : AC3, 2 ch, 192 Kbps, AVO, Андрей Гаврилов
Язык : Russian
Default : Нет
Forced : Нет

Аудио #3
Идентификатор : 4
Формат : DTS
Формат/Информация : Digital Theater Systems
Режим : 16
Параметр Endianness формата : Big
Идентификатор кодека : A_DTS
Продолжительность : 1 ч. 38 м.
Вид битрейта : Постоянный
Битрейт : 1509 Кбит/сек
Каналы : 2 канала
Расположение каналов : Front: L R
Частота : 48,0 КГц
Битовая глубина : 24 бит
Метод сжатия : С потерями
Размер потока : 1,04 Гбайт (23%)
Заголовок : DTS, 2 ch, 1509 Kbps, Original
Язык : English
Default : Нет
Forced : Нет

Текст #1
Идентификатор : 5
Формат : UTF-8
Идентификатор кодека : S_TEXT/UTF8
Идентификатор кодека/Информация : UTF-8 Plain Text
Язык : English
Default : Нет
Forced : Нет

Текст #2
Идентификатор : 6
Формат : UTF-8
Идентификатор кодека : S_TEXT/UTF8
Идентификатор кодека/Информация : UTF-8 Plain Text
Язык : Spanish
Default : Нет
Forced : Нет

Меню
00:00:00.000 : en:Chapter 01
00:00:10.927 : en:Chapter 02
00:12:34.128 : en:Chapter 03
00:23:53.348 : en:Chapter 04
00:37:37.296 : en:Chapter 05
00:48:43.837 : en:Chapter 06
01:00:27.373 : en:Chapter 07
01:11:48.387 : en:Chapter 08
01:23:38.179 : en:Chapter 09
01:38:11.594 : en:Chapter 10


_________________
Проголосуй за трекер Открытый торрент трекер - RUS-MEDIA.ORG

Проголосуй Открытый торрент трекер - RUS-MEDIA.ORG


Вернуться к началу
 Профиль Отправить личное сообщение  
 
   Похожие торренты   Автор   Торрент   Размер 
В этой теме нет новых непрочитанных сообщений. Таинственное свидание / Mystery Date [триллер, мелодрама, криминал, 1991] HDTV 1080i, Dvo

salma3

60 | 41

4.73 ГБ

В этой теме нет новых непрочитанных сообщений. Это не свидание / It's Not a Date [драма, мелодрама, комедия, 2014] WEB-DLRip, Mvo

salma3

164 | 12

1.46 ГБ

В этой теме нет новых непрочитанных сообщений. Краденое свидание / Man Up [мелодрама, комедия, 2015] BDRip 720p, Mvo+Sub [iTunes]

salma3

539 | 86

6.43 ГБ

В этой теме нет новых непрочитанных сообщений. Двойное свидание / Double Date [ужасы, комедия, 2017] WEBRip, Аvo

salma3

300 | 46

1.15 ГБ

В этой теме нет новых непрочитанных сообщений. Первое свидание Райли (мультфильм, короткометражка, мелодрама, комедия, семейный, 2015) BDRip 720p | D

marya111

95 | 12

185.77 МБ

В этой теме нет новых непрочитанных сообщений. Свидание вслепую / Blind Dating [мелодрама, комедия, 2006] BDRip-AVC, Dub

salma3

96 | 24

2.11 ГБ

В этой теме нет новых непрочитанных сообщений. Доктор Голливуд / Doc Hollywood [комедия, мелодрама, 1991] BDRip 720p, Dub

salma3

0 | 0

4.56 ГБ


Начать новую тему Ответить на тему  [ 1 сообщение ] 




Для Мосгорсуда, Роскомнадзора и рекламодателей:: mosgorsud-torrent[собачка]yandex.ru
cron