Торрент файл
скачать торрент магнет ссылка Добавлен: 20 мар 2017, 16:47
Размер: 6.32 ГБ
Сидеров: 4
Личеров: 17
Автор

СообщениеДобавлено: 20 мар 2017, 16:47 

Не в сети
Супермодератор
Аватара пользователя
Дата регистрации:
15 фев 2012, 16:44
Возраст: 29
Спасибо: 7433 / 2147
Сообщения: 80214
Год выпуска: 2005
Жанр: драма, мелодрама, комедия
Режиссер: Джим Джармуш

В ролях: Билл Мюррей, Джеффри Райт, Шэрон Стоун, Фрэнсис Конрой, Джессика Лэнг, Тильда Суинтон, Жюли Дельпи, Хезер Симс, Бреа Фрэзиер, Джерри Фолл

Описание:
Утро для престарелого «Дон Жуана» Дона Джонстона начинается с того, что от него уходит очередная подружка Шерри, потеряв веру в то, что с этим человеком можно создать семью. Оставшись в одиночестве, разбирая почту, Дон обнаруживает розовый конверт. В письме неизвестная сообщает, что двадцать лет назад, расставшись с Доном, обнаружила, что беременна. Не обращаясь за помощью к Дону, вырастила сына, которому уже 19 лет. И мальчик, которому мама не сообщила, кто его отец, решил самостоятельно увидеть папу и ушёл из дома. Дама писала, что ничего не хочет от Дона, просто предупреждает, что встреча отца с сыном вполне возможна. Показав письмо другу Уинстону — любителю детективов — Дон получил от того совет: вспомнить всех своих подружек, которые у него были 20 лет назад и посетить их, выяснив, какая из них родила ему сына…



Страна: США, Франция
Продолжительность: 01:41:22
Перевод: Профессиональный (многоголосый, закадровый)
Субтитры: Русские, английские

Формат: BDRip 720p
Видео: 1280x720p (16:9), 25 fps, AVC MPEG-4 (H.264), ~6329 kbps, 0.275 bit/pixel
Аудио#1: Русский: 48 kHz, AC3 Dolby Digital, 6 ch, ~448 kbps
Аудио#2: Русский: 48 kHz, AC3 Dolby Digital, 6 ch, ~448 kbps
Аудио#3: Английский: 48 kHz, DTS, 6 ch, ~1509 kbps

Общее
Уникальный идентификатор : 208584835464276559100751920022052267799 (0x9CEBFA61EA64C65D846379FA0C5DE717)
Полное имя : Z:\Сломанные цветы [Broken Flowers].2005.2Rus.Eng.BDRip.720p.HDCLUB.mkv
Формат : Matroska
Версия формата : Version 2
Размер файла : 6,32 Гбайт
Продолжительность : 1 ч. 41 м.
Общий поток : 8911 Кбит/сек
Название фильма : Broken Flowers (2005) - Release for HDClub
Дата кодирования : UTC 2010-01-10 21:36:06
Программа кодирования : mkvmerge v2.9.8 ('C'est le bon') built on Aug 13 2009 12:49:06
Библиотека кодирования : libebml v0.7.7 + libmatroska v0.8.1

Видео
Идентификатор : 1
Формат : AVC
Формат/Информация : Advanced Video Codec
Профиль формата :
Параметр CABAC формата : Да
Параметр ReFrames формата : 9 кадров
Идентификатор кодека : V_MPEG4/ISO/AVC
Продолжительность : 1 ч. 41 м.
Битрейт : 6329 Кбит/сек
Ширина : 1280 пикселей
Высота : 720 пикселей
Соотношение сторон : 16:9
Режим частоты кадров : Постоянный
Частота кадров : 25,000 кадров/сек
Цветовое пространство : YUV
Субдискретизация насыщенности : 4:2:0
Битовая глубина : 8 бит
Тип развёртки : Прогрессивная
Бит/(Пиксели*Кадры) : 0.275
Размер потока : 4,49 Гбайт (71%)
Заголовок : Release for HDClub
Библиотека кодирования : x264 core 77 r1292 e381f6d
Настройки программы : cabac=1 / ref=9 / deblock=1:-3:-3 / analyse=0x3:0x113 / me=umh / subme=9 / psy=1 / psy_rd=1.4:0.0 / mixed_ref=1 / me_range=24 / chroma_me=1 / trellis=2 / 8x8dct=1 / cqm=0 / deadzone=21,11 / chroma_qp_offset=-2 / threads=3 / nr=0 / decimate=1 / mbaff=0 / constrained_intra=0 / bframes=6 / b_pyramid=1 / b_adapt=2 / b_bias=0 / direct=1 / wpredb=1 / keyint=250 / keyint_min=25 / scenecut=40 / rc=crf / mbtree=0 / crf=18.0 / qcomp=0.70 / qpmin=10 / qpmax=51 / qpstep=4 / ip_ratio=1.40 / pb_ratio=1.30 / aq=1:0.90
Язык : English
Default : Да
Forced : Нет

Аудио #1
Идентификатор : 2
Формат : AC-3
Формат/Информация : Audio Coding 3
Расширение режима : CM (complete main)
Параметр Endianness формата : Big
Идентификатор кодека : A_AC3
Продолжительность : 1 ч. 41 м.
Вид битрейта : Постоянный
Битрейт : 448 Кбит/сек
Каналы : 6 каналов
Расположение каналов : Front: L C R, Side: L R, LFE
Частота : 48,0 КГц
Частота кадров : 31,250 кадров/сек (1536 spf)
Метод сжатия : С потерями
Размер потока : 325 Мбайт (5%)
Заголовок : AC3 5.1 448 kbps Многоголосый закадровый, CP Digital
Язык : Russian
Default : Да
Forced : Нет

Аудио #2
Идентификатор : 3
Формат : AC-3
Формат/Информация : Audio Coding 3
Расширение режима : CM (complete main)
Параметр Endianness формата : Big
Идентификатор кодека : A_AC3
Продолжительность : 1 ч. 41 м.
Вид битрейта : Постоянный
Битрейт : 448 Кбит/сек
Каналы : 6 каналов
Расположение каналов : Front: L C R, Side: L R, LFE
Частота : 48,0 КГц
Частота кадров : 31,250 кадров/сек (1536 spf)
Метод сжатия : С потерями
Размер потока : 325 Мбайт (5%)
Заголовок : AC3 5.1 448 kbps Многоголосый закадровый, Tycoon-Studio
Язык : Russian
Default : Нет
Forced : Нет

Аудио #3
Идентификатор : 4
Формат : DTS
Формат/Информация : Digital Theater Systems
Режим : 16
Параметр Endianness формата : Big
Идентификатор кодека : A_DTS
Продолжительность : 1 ч. 41 м.
Вид битрейта : Постоянный
Битрейт : 1509 Кбит/сек
Каналы : 6 каналов
Расположение каналов : Front: L C R, Side: L R, LFE
Частота : 48,0 КГц
Частота кадров : 93,750 кадра/сек (512 spf)
Битовая глубина : 24 бит
Метод сжатия : С потерями
Размер потока : 1,07 Гбайт (17%)
Заголовок : DTS 5.1 1536 kbps
Язык : English
Default : Нет
Forced : Нет

Текст #1
Идентификатор : 5
Формат : UTF-8
Идентификатор кодека : S_TEXT/UTF8
Идентификатор кодека/Информация : UTF-8 Plain Text
Заголовок : CP Digital
Язык : Russian
Default : Нет
Forced : Нет

Текст #2
Идентификатор : 6
Формат : UTF-8
Идентификатор кодека : S_TEXT/UTF8
Идентификатор кодека/Информация : UTF-8 Plain Text
Заголовок : Tycoon-Studio
Язык : Russian
Default : Нет
Forced : Нет

Текст #3
Идентификатор : 7
Формат : UTF-8
Идентификатор кодека : S_TEXT/UTF8
Идентификатор кодека/Информация : UTF-8 Plain Text
Язык : English
Default : Нет
Forced : Нет

Меню
00:00:00.000 : :1. The Pink Letter
00:03:28.000 : :2. The Private Life of Don
00:08:18.000 : :3. Dear Don
00:14:53.040 : :4. It's Kinda Lonely in Here
00:19:18.440 : :5. What List?
00:23:09.080 : :6. The Plan
00:27:52.400 : :7. In Transit
00:33:46.320 : :8. Surprise Appearance
00:38:25.240 : :9. Laura & Lolita
00:41:48.000 : :10. Just Looking for a Typewriter
00:44:30.640 : :11. Dora
00:50:29.560 : :12. A Swig of Oil
00:55:09.760 : :13. Stalking in a Taurus
01:02:36.360 : :14. Hidden Agenda
01:08:47.840 : :15. I'm Lost
01:11:53.600 : :16. Penny's Farm
01:19:10.760 : :17. Michelle Pepe
01:24:13.560 : :18. The Last Card?
01:30:06.240 : :19. All There Is Is This
01:36:42.600 : :20. End Titles





_________________
Проголосуй за трекер Открытый торрент трекер - RUS-MEDIA.ORG

Проголосуй Открытый торрент трекер - RUS-MEDIA.ORG


Вернуться к началу
 Профиль Отправить личное сообщение  
 
   Похожие торренты   Автор   Торрент   Размер 
В этой теме нет новых непрочитанных сообщений. Сломанные цветы / Broken Flowers [драма, мелодрама, комедия, детектив, 2005] BDRip 1080p, 2Mvo+Sub

salma3

6 | 11

9.56 ГБ

В этой теме нет новых непрочитанных сообщений. Сломанные цветы / Broken Flowers [драма, мелодрама, комедия, 2005] HDRip, Mvo

salma3

220 | 34

1.45 ГБ

В этой теме нет новых непрочитанных сообщений. Не присылай мне цветы / Send Me No Flowers [Комедия, 1964] BDRip-AVC, Mvo

salma3

0 | 0

2.18 ГБ

В этой теме нет новых непрочитанных сообщений. Цветы на чердаке / Flowers in the Attic [триллер, драма, детектив, 1987] BDRip, Mvo

salma3

10 | 4

1.46 ГБ

В этой теме нет новых непрочитанных сообщений. Один прекрасный день / One Fine Day [драма, мелодрама, комедия, 1996] BDRip 720p, 2Mvo

salma3

0 | 0

7.95 ГБ

В этой теме нет новых непрочитанных сообщений. Цветы войны / The Flowers of War / Jin líng shí san chai [Драма, военный, история, экранизация, 2011] BDRemux 1080p, Dub

salma3

17 | 18

29.04 ГБ

В этой теме нет новых непрочитанных сообщений. Сломанное копье / Broken Lance [Драма, мелодрама, вестерн, 1954] BDRip 720p, Mvo

salma3

0 | 0

4.73 ГБ


Начать новую тему Ответить на тему  [ 1 сообщение ] 




Для Мосгорсуда, Роскомнадзора и рекламодателей:: mosgorsud-torrent[собачка]yandex.ru
cron