Торрент файл
скачать торрент магнет ссылка Добавлен: 12 апр 2017, 12:13
Размер: 7.78 ГБ
Сидеров: 243
Личеров: 177
Статус: (salma3)
Автор

СообщениеДобавлено: 12 апр 2017, 12:13 

Не в сети
Супермодератор
Аватара пользователя
Дата регистрации:
15 фев 2012, 16:44
Возраст: 29
Спасибо: 7435 / 2147
Сообщения: 80293
Год выхода: 2006
Жанр: драма, биография, история
Режиссер: Майкл О. Саджбел

В ролях: Тиффани Дюпон, Люк Госс, Джон Ноубл, Омар Шариф, Джон Рис-Дэвис, Том ’Тайни’ Листер мл., Джеймс Кэллис, Питер О’Тул, Джавен Кэмпбелл, Джоти Догра

О фильме:
Юная и необычайно красивая девушка, выросшая в семье рабов, попадает волею случая во дворец к Королю. Она еще не знает, какую важную роль ей предстоит сыграть в жизни всего королевства.



Страна: США
Продолжительность: 01:57:32
Перевод: Профессиональный (двухголосый, закадровый) [R5]

Файл
Качество: BDRip 1080p
Видео: 1920x800 at 25.000 fps, x264@L4.1, ~8579 kbps avg
Aудио#1: Russian: 48 kHz, AC3, 3/2 (L,C,R,l,r) + LFE ch, ~448 kbps avg
Aудио#2: English: 48 kHz, AC3, 3/2 (L,C,R,l,r) + LFE ch, ~448 kbps avg
Субтитры: Russian, English, Spanish, Portuguese, Hebrew

***Сохранены оригинальные главы как на Blu-ray.
***Релиз - whalekilla.

Общее
Уникальный идентификатор : 216970135097131993379960409490291088944 (0xA33AED92DBBECFA1813BAC6E3262DE30)
Полное имя : One.Night.with.the.King.2006.BDRip.(1080p).mkv
Формат : Matroska
Версия формата : Version 4 / Version 2
Размер файла : 7,78 Гбайт
Продолжительность : 1 ч. 57 м.
Общий поток : 9477 Кбит/сек
Название фильма : One Night with the King (2006)
Дата кодирования : UTC 2017-04-11 10:02:26
Программа кодирования : mkvmerge v6.9.1 ('Blue Panther') 64bit built on Apr 18 2014 18:23:38
Библиотека кодирования : libebml v1.3.0 + libmatroska v1.4.1

Видео
Идентификатор : 1
Формат : AVC
Формат/Информация : Advanced Video Codec
Профиль формата : High@L4.1
Параметр CABAC формата : Да
Параметр ReFrames формата : 5 кадров
Идентификатор кодека : V_MPEG4/ISO/AVC
Продолжительность : 1 ч. 57 м.
Битрейт : 8579 Кбит/сек
Ширина : 1920 пикселей
Высота : 800 пикселей
Соотношение сторон : 2,40:1
Режим частоты кадров : Постоянный
Частота кадров : 25,000 кадров/сек
Цветовое пространство : YUV
Субдискретизация насыщенности : 4:2:0
Битовая глубина : 8 бит
Тип развёртки : Прогрессивная
Бит/(Пиксели*Кадры) : 0.223
Размер потока : 6,89 Гбайт (89%)
Заголовок : One Night with the King (2006)
Библиотека кодирования : x264 core 148 r2638 7599210
Настройки программы : cabac=1 / ref=5 / deblock=1:-3:-3 / analyse=0x3:0x133 / me=umh / subme=11 / psy=1 / psy_rd=1.00:0.00 / mixed_ref=1 / me_range=32 / chroma_me=1 / trellis=2 / 8x8dct=1 / cqm=0 / deadzone=21,11 / fast_pskip=1 / chroma_qp_offset=-2 / threads=6 / lookahead_threads=1 / sliced_threads=0 / nr=0 / decimate=1 / interlaced=0 / bluray_compat=0 / constrained_intra=0 / bframes=3 / b_pyramid=2 / b_adapt=2 / b_bias=0 / direct=3 / weightb=1 / open_gop=0 / weightp=2 / keyint=250 / keyint_min=25 / scenecut=40 / intra_refresh=0 / rc_lookahead=60 / rc=2pass / mbtree=1 / bitrate=8579 / ratetol=1.0 / qcomp=0.60 / qpmin=0 / qpmax=69 / qpstep=4 / cplxblur=20.0 / qblur=0.5 / vbv_maxrate=50000 / vbv_bufsize=62500 / nal_hrd=none / filler=0 / ip_ratio=1.40 / aq=1:1.00
Язык : English
Default : Да
Forced : Нет

Аудио #1
Идентификатор : 2
Формат : AC-3
Формат/Информация : Audio Coding 3
Расширение режима : CM (complete main)
Параметр Endianness формата : Big
Идентификатор кодека : A_AC3
Продолжительность : 1 ч. 57 м.
Вид битрейта : Постоянный
Битрейт : 448 Кбит/сек
Каналы : 6 каналов
Расположение каналов : Front: L C R, Side: L R, LFE
Частота : 48,0 КГц
Метод сжатия : С потерями
Размер потока : 377 Мбайт (5%)
Заголовок : AC3, 6 ch, 448 Kbps, MVO
Язык : Russian
Default : Да
Forced : Нет

Аудио #2
Идентификатор : 3
Формат : AC-3
Формат/Информация : Audio Coding 3
Расширение режима : CM (complete main)
Параметр Endianness формата : Big
Идентификатор кодека : A_AC3
Продолжительность : 1 ч. 57 м.
Вид битрейта : Постоянный
Битрейт : 448 Кбит/сек
Каналы : 6 каналов
Расположение каналов : Front: L C R, Side: L R, LFE
Частота : 48,0 КГц
Метод сжатия : С потерями
Размер потока : 377 Мбайт (5%)
Заголовок : AC3, 6 ch, 448 Kbps, Original
Язык : English
Default : Нет
Forced : Нет

Текст #1
Идентификатор : 4
Формат : UTF-8
Идентификатор кодека : S_TEXT/UTF8
Идентификатор кодека/Информация : UTF-8 Plain Text
Язык : English
Default : Нет
Forced : Нет

Текст #2
Идентификатор : 5
Формат : UTF-8
Идентификатор кодека : S_TEXT/UTF8
Идентификатор кодека/Информация : UTF-8 Plain Text
Язык : Spanish
Default : Нет
Forced : Нет

Текст #3
Идентификатор : 6
Формат : UTF-8
Идентификатор кодека : S_TEXT/UTF8
Идентификатор кодека/Информация : UTF-8 Plain Text
Язык : Portuguese
Default : Нет
Forced : Нет

Текст #4
Идентификатор : 7
Формат : UTF-8
Идентификатор кодека : S_TEXT/UTF8
Идентификатор кодека/Информация : UTF-8 Plain Text
Язык : Hebrew
Default : Нет
Forced : Нет

Меню
00:00:00.000 : en:00:00:00.000
00:07:30.000 : en:00:07:30.000
00:15:00.000 : en:00:15:00.000
00:22:30.000 : en:00:22:30.000
00:30:00.000 : en:00:30:00.000
00:36:00.000 : en:00:36:00.000
00:37:30.000 : en:00:37:30.000
00:45:00.000 : en:00:45:00.000
00:52:30.000 : en:00:52:30.000
01:10:00.000 : en:01:10:00.000
01:30:00.000 : en:01:30:00.000
01:50:00.000 : en:01:50:00.000


_________________
Проголосуй за трекер Открытый торрент трекер - RUS-MEDIA.ORG

Проголосуй Открытый торрент трекер - RUS-MEDIA.ORG


Вернуться к началу
 Профиль Отправить личное сообщение  
 
   Похожие торренты   Автор   Торрент   Размер 
В этой теме нет новых непрочитанных сообщений. Неудачная ночь / Ночь накануне Хэллоуина / Mischief Night / The Night Before Halloween [ужасы, триллер, драма, 2013] BDRip 1080p, Avo

salma3

0 | 0

5.61 ГБ

В этой теме нет новых непрочитанных сообщений. Девушка-король / The Girl King Драма, мелодрама, биография, история[, 2015] BDRip 1080p, Avo

salma3

27 | 5

10.77 ГБ

В этой теме нет новых непрочитанных сообщений. Король говорит! / The King's Speech [драма, биография, история, 2010] BDRip, Dub

salma3

0 | 0

2.19 ГБ

В этой теме нет новых непрочитанных сообщений. Чeловек, который хотел быть королём / The Man Who Would Be King [приключения, 1975] BDRip 720p, Dub

salma3

38 | 13

6.16 ГБ

В этой теме нет новых непрочитанных сообщений. Девушка-король / The Girl King [Драма, мелодрама, биография, история, 2015] BDRip 720p, Avo

salma3

49 | 32

5.6 ГБ

В этой теме нет новых непрочитанных сообщений. Тихая ночь, смертельная ночь / Silent Night, Deadly Night [ужасы, слэшер, 1984] BDRemux 1080p, Avo

salma3

0 | 0

17.58 ГБ

В этой теме нет новых непрочитанных сообщений. Инициация: Тихая ночь, смертельная ночь 4 / Initiation: Silent Night, Deadly Night 4 [ужасы, 1990] WEB-DL 1080p, Avo

salma3

0 | 0

4.67 ГБ


Начать новую тему Ответить на тему  [ 1 сообщение ] 




Для Мосгорсуда, Роскомнадзора и рекламодателей:: mosgorsud-torrent[собачка]yandex.ru
cron