Торрент файл
скачать торрент магнет ссылка Добавлен: 15 апр 2017, 20:40
Размер: 7.34 ГБ
Сидеров: 104
Личеров: 57
Статус: (salma3)
Автор

СообщениеДобавлено: 15 апр 2017, 20:40 

Не в сети
Супермодератор
Аватара пользователя
Дата регистрации:
15 фев 2012, 16:44
Возраст: 29
Спасибо: 7401 / 2147
Сообщения: 78470
Год выхода: 1988
Жанр: ужасы, триллер
Режиссер: Скип Скулник

В ролях: Бриттейн Фрай, Аннетт Синклер, Джордж Томас, Скотт Фалтс, Риа Павиа, Шон Кэнан, Джефф Ливайн, Майкл Келли, Рон Колби, Дональд Марк, Джеймс Серрано

О фильме: Компания ребят самовольно устраивает ночную вечеринку в большом магазине, принадлежащем отцу одного из них. Полумрак магазина располагает к разным страшным шуточкам, которыми парни пугают своих подружек. Но, оказывается, что там был еще кто-то, кто хочет напугать их всех по-настоящему…



Страна: США
Продолжительность: 01:30:35
Перевод: Профессиональный (многоголосный, закадровый) [R5]

Кодек: x264
Качество: BDRip 1080p
Видео: 1920x1080, 10900 kbps, 23,976 fps
Аудио #1: AC-3, 2 ch, 224 kbps (Rus) - MVO R5 «Twister»
Аудио #2: AC-3, 2 ch, 224 kbps (Eng)

Сравниваем DVD и BD :

Общее
Уникальный идентификатор : 209713275381191974448757453490749272700 (0x9DC54EC410AC27E1B48EA2A6E4BD727C)
Полное имя : E:ТоррентИгра в прятки (Hide and go shriek) 1988 BDRip 1080p.mkv
Формат : Matroska
Версия формата : Version 2
Размер файла : 7,34 Гбайт
Продолжительность : 1 ч. 30 м.
Общий поток : 11,6 Мбит/сек
Дата кодирования : UTC 2017-04-09 19:27:26
Программа кодирования : mkvmerge v4.0.0 ('The Stars were mine') сборка от Jun 6 2010 16:18:42
Библиотека кодирования : libebml v1.0.0 + libmatroska v1.0.0

Видео
Идентификатор : 1
Формат : AVC
Формат/Информация : Advanced Video Codec
Профиль формата : High@L4.1
Параметр CABAC формата : Да
Параметр ReFrames формата : 4 кадра
Идентификатор кодека : V_MPEG4/ISO/AVC
Продолжительность : 1 ч. 30 м.
Битрейт : 10,9 Мбит/сек
Номинальный битрейт : 11,5 Мбит/сек
Ширина : 1920 пикселей
Высота : 1080 пикселей
Соотношение сторон : 16:9
Режим частоты кадров : Постоянный
Частота кадров : 23,976 кадра/сек
Цветовое пространство : YUV
Субдискретизация насыщенности : 4:2:0
Битовая глубина : 8 бит
Тип развёртки : Прогрессивная
Бит/(Пиксели*Кадры) : 0.220
Размер потока : 6,91 Гбайт (94%)
Библиотека кодирования : x264 core 148 r2694 3b70645
Настройки программы : cabac=1 / ref=4 / deblock=1:-2:-2 / analyse=0x3:0x113 / me=umh / subme=7 / psy=1 / psy_rd=1.00:0.15 / mixed_ref=1 / me_range=16 / chroma_me=1 / trellis=1 / 8x8dct=1 / cqm=0 / deadzone=21,11 / fast_pskip=1 / chroma_qp_offset=-3 / threads=40 / lookahead_threads=3 / sliced_threads=0 / nr=0 / decimate=1 / interlaced=0 / bluray_compat=0 / constrained_intra=0 / bframes=3 / b_pyramid=2 / b_adapt=2 / b_bias=0 / direct=3 / weightb=1 / open_gop=0 / weightp=2 / keyint=250 / keyint_min=25 / scenecut=40 / intra_refresh=0 / rc_lookahead=50 / rc=abr / mbtree=1 / bitrate=11500 / ratetol=1.0 / qcomp=0.60 / qpmin=0 / qpmax=69 / qpstep=4 / vbv_maxrate=31250 / vbv_bufsize=31250 / nal_hrd=none / filler=0 / ip_ratio=1.40 / aq=1:1.00
Язык : English
Default : Нет
Forced : Нет

Аудио #1
Идентификатор : 2
Формат : AC-3
Формат/Информация : Audio Coding 3
Расширение режима : CM (complete main)
Параметр Endianness формата : Big
Идентификатор кодека : A_AC3
Продолжительность : 1 ч. 30 м.
Вид битрейта : Постоянный
Битрейт : 224 Кбит/сек
Каналы : 2 канала
Расположение каналов : Front: L R
Частота : 48,0 КГц
Битовая глубина : 16 бит
Метод сжатия : С потерями
Размер потока : 145 Мбайт (2%)
Заголовок : MVO R5 «Twister»
Язык : Russian
Default : Нет
Forced : Нет

Аудио #2
Идентификатор : 3
Формат : AC-3
Формат/Информация : Audio Coding 3
Расширение режима : CM (complete main)
Параметр Endianness формата : Big
Идентификатор кодека : A_AC3
Продолжительность : 1 ч. 30 м.
Вид битрейта : Постоянный
Битрейт : 224 Кбит/сек
Каналы : 2 канала
Расположение каналов : Front: L R
Частота : 48,0 КГц
Битовая глубина : 16 бит
Метод сжатия : С потерями
Размер потока : 145 Мбайт (2%)
Язык : English
Default : Нет
Forced : Нет


_________________
Проголосуй за трекер Открытый торрент трекер - RUS-MEDIA.ORG

Проголосуй Открытый торрент трекер - RUS-MEDIA.ORG


Вернуться к началу
 Профиль Отправить личное сообщение  
 
   Похожие торренты   Автор   Торрент   Размер 
В этой теме нет новых непрочитанных сообщений. Игра в прятки / Hide and Go Shriek [ужасы, триллер, 1988] BDRip, Mvo

salma3

13 | 6

1.45 ГБ

В этой теме нет новых непрочитанных сообщений. Игра в прятки / Hide and Seek [Ужасы, триллер, детектив, 2005] BDRip 1080p, Dub

salma3

21 | 115

11.25 ГБ

В этой теме нет новых непрочитанных сообщений. Игра в прятки / Hide and Seek [ужасы, триллер, детектив, 2005] HDTVRip, Dub

salma3

23 | 7

1.46 ГБ

В этой теме нет новых непрочитанных сообщений. Прятки / Hide and Go Seek [Ужасы, триллер, 2018] HDRip, Dvo

salma3

0 | 0

1.29 ГБ

В этой теме нет новых непрочитанных сообщений. Игра в прятки / Hide and Seek (Джоанна Коутс / Joanna Coates) [2014г., Великобритания, драма, мелодрама, арт-хауз, эротика, HDTVRip] sub

Alfredovich

1 | 1

621.56 МБ

В этой теме нет новых непрочитанных сообщений. Грязный Гарри 5: Игра в смерть / The Dead Pool [боевик, триллер, криминал, 1988] BDRip 1080p, Dub

salma3

25 | 6

9.87 ГБ

В этой теме нет новых непрочитанных сообщений. Прикосновение смерти / Quando Alice ruppe lo specchio [ужасы, триллер, 1988] BDRip 1080p, Mvo

salma3

31 | 14

8.7 ГБ


Начать новую тему Ответить на тему  [ 1 сообщение ] 




Для Мосгорсуда, Роскомнадзора и рекламодателей:: mosgorsud-torrent[собачка]yandex.ru
cron