Торрент файл
скачать торрент магнет ссылка Добавлен: 15 май 2017, 21:00
Размер: 15.79 ГБ
Сидеров: 28
Личеров: 73
Статус: (salma3)
Автор

СообщениеДобавлено: 15 май 2017, 21:00 

Не в сети
Супермодератор
Аватара пользователя
Дата регистрации:
15 фев 2012, 16:44
Возраст: 29
Спасибо: 7433 / 2147
Сообщения: 80216
Год выхода: 1990
Жанр: боевик, триллер, комедия
Режиссер: Джон Бэдэм

В ролях: Мэл Гибсон, Голди Хоун, Дэвид Кэрредин, Билл Дьюк, Стивен Тоболовски, Джоан Северанс, Гарри Цезар, Джефф Кори, Алекс Брухански, Джон Пайпер-Фергюсон

О фильме:
Дела Рика Джармина, живущего тайной жизнью по специально разработанной ФБР программе защиты свидетелей, складывается не лучшим образом. Дело в том, что пятнадцать лет назад он дал показания против полицейского, промышляющего торговлей наркотиками, что позволило усадить негодяя за решетку. Преступник, отсидевший свой срок, решает отомстить «стукачу» и начинает охоту на Джармина. Случайно Рик сталкивается с Мэриэнн Грэйвз, своей бывшей невестой. Мэриэнн, естественно, узнает его, что облегчает задачу убийцам, следующим за Джармином по пятам. Теперь бывшим возлюбленным вместе предстоит спасаться от злодеев, но именно это помогает им вернуть утраченную любовь.



Страна: США
Продолжительность: 01:50:31
Перевод: Профессиональный (многоголосый, закадровый) R5 + Профессиональный (двухголосый, закадровый) HTB+ + Авторский (одноголосый, закадровый) А.Гаврилов + Профессиональный (многоголосый, закадровый) HTB + Профессиональный (многоголосый, закадровый) Neoclassica + Профессиональный (многоголосый, закадровый) CTC + Профессиональный (двухголосый, закадровый) OPT + Профессиональный (двухголосый, закадровый) Премьер Видео Фильм + Авторский (одноголосый, закадровый) М.Иванов + Авторский (одноголосый, закадровый) А.Михалёв + Авторский (одноголосый, закадровый) М.Яроцкий + Любительский (одноголосый, закадровый) Неизвестный

Файл
Качество: BDRip 1080p
Формат: Matroska
Видео: 1920x816 at 23.976 fps, MPEG-4 AVC, ~13700 kbps avg
Аудио#1: Russian: 48 kHz, AC3, 2/0 (L,R) ch, ~192 kbps avg |Многоголосый закадровый, R5|
Аудио#2: Russian: 48 kHz, AC3, 2/0 (L,R) ch, ~192 kbps avg |Двухголосый, HTB+|
Аудио#3: Russian: 48 kHz, DTS, 2/0 (L,R) ch, ~1509 kbps avg |Авторский, А.Гаврилов|
Аудио#4: Russian: 48 kHz, AC3, 2/0 (L,R) ch, ~192 kbps avg |Многоголосый закадровый, HTB|
Аудио#5: Russian: 48 kHz, AC3, 2/0 (L,R) ch, ~192 kbps avg |Многоголосый закадровый, Neoclassica|
Аудио#6: Russian: 48 kHz, AC3, 2/0 (L,R) ch, ~192 kbps avg |Многоголосый закадровый, CTC|
Аудио#7: Russian: 48 kHz, AC3, 2/0 (L,R) ch, ~192 kbps avg |Двухголосый закадровый, OPT|
Аудио#8: Russian: 48 kHz, AC3, 2/0 (L,R) ch, ~192 kbps avg |Двухголосый закадровый, Премьер Видео Фильм|
Аудио#9: Russian: 48 kHz, DTS, 2/0 (L,R) ch, ~1509 kbps avg |Авторский, М.Иванов|
Аудио#10: Russian: 48 kHz, AC3, 2/0 (L,R) ch, ~192 kbps avg |Авторский, А.Михалёв|
Аудио#11: Russian: 48 kHz, AC3, 2/0 (L,R) ch, ~224 kbps avg |Авторский, М.Яроцкий|
Аудио#12: Russian: 48 kHz, AC3, 2/0 (L,R) ch, ~192 kbps avg |Любительский, Неизвестный|
Аудио#13: English: 48 kHz, DTS, 2/0 (L,R) ch, ~1509 kbps avg
Субтитры: Russian, English

***Сохранены оригинальные главы как на Blu-ray.
***Аудио#4-13 - отдельными файлами!
***Релиз - msltel.

[*]Несмотря на то, что сюжет фильма развивается исключительно в США, съемки фильма проходили в основном в Канаде, в провинции Британская Колумбия. Единственным местом в США, где проводились съемки, был Детройт (сцена с отелем Four Seasons).
Общее
Уникальный идентификатор : 225912270879614946930440637019125243896 (0xA9F51EE81B256873B83F33AFCA60DFF8)
Полное имя : Птичка на проводе.1990.BDRip.1080p by msltel.mkv
Формат : Matroska
Версия формата : Version 4 / Version 2
Размер файла : 12,3 Гбайт
Продолжительность : 1 ч. 50 м.
Общий поток : 15,9 Мбит/сек
Название фильма : Rip by msltel
Дата кодирования : UTC 2017-05-15 01:26:01
Программа кодирования : mkvmerge v8.2.0 ('World of Adventure') 64bit
Библиотека кодирования : libebml v1.3.1 + libmatroska v1.4.2

Видео
Идентификатор : 1
Формат : AVC
Формат/Информация : Advanced Video Codec
Профиль формата : High@L4.1
Параметр CABAC формата : Да
Параметр ReFrames формата : 4 кадра
Идентификатор кодека : V_MPEG4/ISO/AVC
Продолжительность : 1 ч. 50 м.
Битрейт : 13,7 Мбит/сек
Ширина : 1920 пикселей
Высота : 816 пикселей
Соотношение сторон : 2,35:1
Режим частоты кадров : Постоянный
Частота кадров : 23,976 кадра/сек
Цветовое пространство : YUV
Субдискретизация насыщенности : 4:2:0
Битовая глубина : 8 бит
Тип развёртки : Прогрессивная
Бит/(Пиксели*Кадры) : 0.363
Размер потока : 10,5 Гбайт (86%)
Библиотека кодирования : x264 core 146 r2538 121396c
Настройки программы : cabac=1 / ref=4 / deblock=1:-3:-2 / analyse=0x3:0x113 / me=umh / subme=11 / psy=1 / psy_rd=1.00:0.15 / mixed_ref=1 / me_range=32 / chroma_me=1 / trellis=2 / 8x8dct=1 / cqm=0 / deadzone=21,11 / fast_pskip=0 / chroma_qp_offset=-3 / threads=6 / lookahead_threads=1 / sliced_threads=0 / nr=0 / decimate=1 / interlaced=0 / bluray_compat=0 / constrained_intra=0 / bframes=12 / b_pyramid=2 / b_adapt=2 / b_bias=0 / direct=1 / weightb=1 / open_gop=0 / weightp=2 / keyint=230 / keyint_min=23 / scenecut=40 / intra_refresh=0 / rc_lookahead=40 / rc=crf / mbtree=0 / crf=21.5 / qcomp=0.60 / qpmin=0 / qpmax=69 / qpstep=4 / vbv_maxrate=62500 / vbv_bufsize=78125 / crf_max=0.0 / nal_hrd=none / filler=0 / ip_ratio=1.40 / pb_ratio=1.30 / aq=1:1.00
Язык : English
Default : Да
Forced : Нет

Аудио #1
Идентификатор : 2
Формат : AC-3
Формат/Информация : Audio Coding 3
Расширение режима : CM (complete main)
Параметр Endianness формата : Big
Идентификатор кодека : A_AC3
Продолжительность : 1 ч. 50 м.
Вид битрейта : Постоянный
Битрейт : 192 Кбит/сек
Каналы : 2 канала
Расположение каналов : Front: L R
Частота : 48,0 КГц
Битовая глубина : 16 бит
Метод сжатия : С потерями
Размер потока : 152 Мбайт (1%)
Заголовок : MVO (R5)
Язык : Russian
Default : Да
Forced : Нет

Аудио #2
Идентификатор : 3
Формат : AC-3
Формат/Информация : Audio Coding 3
Расширение режима : CM (complete main)
Параметр Endianness формата : Big
Идентификатор кодека : A_AC3
Продолжительность : 1 ч. 50 м.
Вид битрейта : Постоянный
Битрейт : 192 Кбит/сек
Каналы : 2 канала
Расположение каналов : Front: L R
Частота : 48,0 КГц
Битовая глубина : 16 бит
Метод сжатия : С потерями
Размер потока : 152 Мбайт (1%)
Заголовок : DVO (HTB+)
Язык : Russian
Default : Нет
Forced : Нет

Аудио #3
Идентификатор : 4
Формат : DTS
Формат/Информация : Digital Theater Systems
Режим : 16
Параметр Endianness формата : Big
Идентификатор кодека : A_DTS
Продолжительность : 1 ч. 50 м.
Вид битрейта : Постоянный
Битрейт : 1509 Кбит/сек
Каналы : 2 канала
Расположение каналов : Front: L R
Частота : 48,0 КГц
Битовая глубина : 24 бит
Метод сжатия : С потерями
Размер потока : 1,17 Гбайт (10%)
Заголовок : AVO (Андрей Гаврилов)
Язык : Russian
Default : Нет
Forced : Нет

Меню
00:00:00.000 : :Chapter 01
00:08:41.645 : :Chapter 02
00:18:18.763 : :Chapter 03
00:27:45.871 : :Chapter 04
00:34:08.545 : :Chapter 05
00:51:28.168 : :Chapter 06
01:02:10.934 : :Chapter 07
01:10:31.100 : :Chapter 08
01:19:35.729 : :Chapter 09
01:29:03.503 : :Chapter 10
01:40:15.259 : :Chapter 11
01:46:50.404 : :Chapter 12
01:50:34.586 : :Chapter 13


_________________
Проголосуй за трекер Открытый торрент трекер - RUS-MEDIA.ORG

Проголосуй Открытый торрент трекер - RUS-MEDIA.ORG


Вернуться к началу
 Профиль Отправить личное сообщение  
 
   Похожие торренты   Автор   Торрент   Размер 
В этой теме нет новых непрочитанных сообщений. Птичка на проводе / Bird on a Wire [боевик, триллер, комедия, 1990] BDRip 720p, Dub

salma3

10 | 37

12 ГБ

В этой теме нет новых непрочитанных сообщений. Птичка на проводе / Bird on a Wire [боевик, триллер, комедия, приключения, 1990] BDRip 720p, Mvo

salma3

102 | 22

7.24 ГБ

В этой теме нет новых непрочитанных сообщений. Птичка на проводе / Bird on a Wire [боевик, триллер, комедия, 1990] WEB-DL 1080p, Mvo+Dvo+Avo+Sub [Open Matte]

salma3

23 | 14

13.49 ГБ

В этой теме нет новых непрочитанных сообщений. Птичка на проводе / Bird on a Wire [боевик, триллер, комедия, приключения, 1990] WEB-DLRip-AVC, MvO+Avo+Sub

salma3

106 | 17

1.45 ГБ

В этой теме нет новых непрочитанных сообщений. Птичка на проводе / Bird on a Wire [Боевик, Комедия, Приключения, Триллер, 1990] WEB-DLRip, Avo [Гаврилов]

salma3

33 | 9

1.46 ГБ

В этой теме нет новых непрочитанных сообщений. Птичка на проводе / Bird on a Wire [Боевик, Комедия, Приключения, Триллер, 1990] WEB-DLRip 720p, Mvo+Dvo+Avo+Sub

salma3

7 | 42

7.76 ГБ

В этой теме нет новых непрочитанных сообщений. Детсадовский полицейский / Kindergarten Cop [Боевик, триллер, комедия, 1990] BDRip 1080p, Mvo

salma3

0 | 0

15.33 ГБ


Начать новую тему Ответить на тему  [ 1 сообщение ] 




Для Мосгорсуда, Роскомнадзора и рекламодателей:: mosgorsud-torrent[собачка]yandex.ru
cron