Торрент файл
скачать торрент магнет ссылка Добавлен: 31 май 2017, 11:33
Размер: 11.29 ГБ
Сидеров: 13
Личеров: 3
Статус: (salma3)
Автор

СообщениеДобавлено: 31 май 2017, 11:33 

В сети
Супермодератор
Аватара пользователя
Дата регистрации:
15 фев 2012, 16:44
Возраст: 29
Спасибо: 7401 / 2147
Сообщения: 78571
Год выпуска:1988
Жанр: драма, мелодрама, комедия
Режиссер:Роджер Дональдсон

В ролях:Том Круз, Брайан Браун, Элизабет Шу, Лоуренс Лакинбилл, Келли Линч, Джина Гершон, Лиза Бейнс, Рон Дин, Роберт Донли, Эллен Фоли

Описание:
Молодой, самоуверенный и амбициозный Брайан Фланаган всегда мечтал сделать карьеру, которая дала бы ему власть, развлечения и быстрые деньги. Однако когда выясняется, что крупные фирмы вовсе не спешат брать его на работу, холодная реальность опустевшего кошелька заставляет его согласиться на работу бармена. Растворившись в соблазнительном мире лёгких денег и секса, Брайан становится настоящей звездой ночного Манхэттена. Всё меняется, когда он влюбляется в независимую и уверенную в себе Джордан, которая совсем не похожа на его смазливых клиенток. Наконец он отыскал женщину, которая знает, что такое настоящая любовь, а самое главное, кто же такой на самом деле Брайан Фланаган...



Страна: США
Продолжительность: 01:43:30
Перевод: Профессиональный (дублированный) + 3х Профессиональный (многоголосый) + Авторский (одноголосый) | Алексей Михалёв
Субтитры: русские, английские

Качество: BDRip 720p
Видео: 1280x694 (1.85:1), 23.976 fps, MPEG-4 AVC ~11.5 Мbps avg
Аудио №1: 48.0 kHz, AC3 Dolby Digital, 2/0 (L,R) ch, ~192 kbps | DUB / СВ-Дубль
Аудио №2: 48.0 kHz, AC3 Dolby Digital, 2/0 (L,R) ch, ~192 kbps | MVO / Видеосервис
Аудио №3: 48.0 kHz, AC3 Dolby Digital, 2/0 (L,R) ch, ~192 kbps | MVO / Первый канал
Аудио №4: 48.0 kHz, AC3 Dolby Digital, 2/0 (L,R) ch, ~192 kbps | MVO / Нева-1
Аудио №5: 48.0 kHz, Digital Theater Systems, 3/2 (L,C,R,l,r) + LFE ch, ~1509 kbps / 24 bits | АVO / Алексей Михалёв
Аудио №6: 48.0 kHz, Digital Theater Systems, 3/2 (L,C,R,l,r) + LFE ch, ~1509 kbps / 24 bits | ENG
Формат субтитров: UTF-8 Plain Text

Формат : Matroska
Версия формата : Version 2
Размер файла : 11,3 Гбайт
Продолжительность : 1 ч. 43 м.
Общий поток : 15,6 Мбит/сек
Название фильма : Cocktail (1988) - Release for HDCLUB
Дата кодирования : UTC 2012-12-25 08:46:05
Программа кодирования : mkvmerge v3.4.0 ('Rapunzel') сборка от May 15 2010 09:38:20
Библиотека кодирования : libebml v0.8.0 + libmatroska v0.9.0
Attachment : Yes / Yes
Видео
Идентификатор : 1
Формат : AVC
Формат/Информация : Advanced Video Codec
Профиль формата : High@L4.1
Параметр CABAC формата : Да
Параметр ReFrames формата : 9 кадров
Идентификатор кодека : V_MPEG4/ISO/AVC
Продолжительность : 1 ч. 43 м.
Битрейт : 11,5 Мбит/сек
Ширина : 1280 пикселей
Высота : 694 пикселя
Соотношение сторон : 1,85:1
Режим частоты кадров : Постоянный
Частота кадров : 23,976 кадра/сек
Цветовое пространство : YUV
Субдискретизация насыщенности : 4:2:0
Битовая глубина : 8 бит
Тип развёртки : Прогрессивная
Бит/(Пиксели*Кадры) : 0.541
Размер потока : 8,33 Гбайт (74%)
Заголовок : HDCLUB
Библиотека кодирования : x264 core 125 r2200+677M 3a754e7
Настройки программы : cabac=1 / ref=9 / deblock=1:-3:-3 / analyse=0x3:0x133 / me=umh / subme=11 / psy=1 / fade_compensate=0.00 / psy_rd=1.00:0.03 / mixed_ref=1 / me_range=32 / chroma_me=1 / trellis=2 / 8x8dct=1 / cqm=0 / deadzone=21,11 / fast_pskip=0 / chroma_qp_offset=-3 / threads=6 / lookahead_threads=1 / sliced_threads=0 / nr=0 / decimate=0 / interlaced=0 / bluray_compat=0 / constrained_intra=0 / fgo=0 / bframes=9 / b_pyramid=2 / b_adapt=2 / b_bias=0 / direct=3 / weightb=1 / open_gop=0 / weightp=2 / keyint=250 / keyint_min=23 / scenecut=40 / intra_refresh=0 / rc_lookahead=60 / rc=crf / mbtree=1 / crf=17.0000 / qcomp=0.70 / qpmin=0 / qpmax=69 / qpstep=4 / ip_ratio=1.40 / aq=3:0.75 / zones=24117,24924,crf=17.1/38944,43441,crf=16/52414,55680,crf=16/61428,66355,crf=17.5/68146,70326,crf=16/71237,71704,crf=17.5/81827,82138,crf=17.1/84320,85017,crf=17.2/87468,89317,crf=17.1/89318,91387,crf=16.5/97861,100089,crf=15,psy-rd=1:0.6/130428,130795,crf=17.1/132100,132239,crf=17.5/132905,134896,crf=17.1/143803,148929,b=0.5
Язык : English
Default : Нет
Forced : Нет
Аудио #1
Идентификатор : 2
Формат : AC-3
Формат/Информация : Audio Coding 3
Расширение режима : CM (complete main)
Параметр Endianness формата : Big
Идентификатор кодека : A_AC3
Продолжительность : 1 ч. 43 м.
Вид битрейта : Постоянный
Битрейт : 192 Кбит/сек
Каналы : 2 канала
Расположение каналов : Front: L R
Частота : 48,0 КГц
Битовая глубина : 16 бит
Метод сжатия : С потерями
Размер потока : 142 Мбайт (1%)
Заголовок : AC3 2.0 @ 192 kbps - Дубляж, СВ-Дубль
Язык : Russian
Default : Нет
Forced : Нет
Аудио #2
Идентификатор : 3
Формат : AC-3
Формат/Информация : Audio Coding 3
Расширение режима : CM (complete main)
Параметр Endianness формата : Big
Идентификатор кодека : A_AC3
Продолжительность : 1 ч. 43 м.
Вид битрейта : Постоянный
Битрейт : 192 Кбит/сек
Каналы : 2 канала
Расположение каналов : Front: L R
Частота : 48,0 КГц
Битовая глубина : 16 бит
Метод сжатия : С потерями
Размер потока : 142 Мбайт (1%)
Заголовок : AC3 2.0 @ 192 kbps - Многоголосый, Видеосервис
Язык : Russian
Default : Нет
Forced : Нет
Аудио #3
Идентификатор : 4
Формат : AC-3
Формат/Информация : Audio Coding 3
Расширение режима : CM (complete main)
Параметр Endianness формата : Big
Идентификатор кодека : A_AC3
Продолжительность : 1 ч. 43 м.
Вид битрейта : Постоянный
Битрейт : 192 Кбит/сек
Каналы : 2 канала
Расположение каналов : Front: L R
Частота : 48,0 КГц
Битовая глубина : 16 бит
Метод сжатия : С потерями
Размер потока : 142 Мбайт (1%)
Заголовок : AC3 2.0 @ 192 kbps - Многоголосый, Первый канал
Язык : Russian
Default : Нет
Forced : Нет
Аудио #4
Идентификатор : 5
Формат : AC-3
Формат/Информация : Audio Coding 3
Расширение режима : CM (complete main)
Параметр Endianness формата : Big
Идентификатор кодека : A_AC3
Продолжительность : 1 ч. 43 м.
Вид битрейта : Постоянный
Битрейт : 192 Кбит/сек
Каналы : 2 канала
Расположение каналов : Front: L R
Частота : 48,0 КГц
Битовая глубина : 16 бит
Метод сжатия : С потерями
Размер потока : 142 Мбайт (1%)
Заголовок : AC3 2.0 @ 192 kbps - Многоголосный, Нева-1
Язык : Russian
Default : Нет
Forced : Нет
Аудио #5
Идентификатор : 6
Формат : DTS
Формат/Информация : Digital Theater Systems
Режим : 16
Параметр Endianness формата : Big
Идентификатор кодека : A_DTS
Продолжительность : 1 ч. 43 м.
Вид битрейта : Постоянный
Битрейт : 1509 Кбит/сек
Каналы : 6 каналов
Расположение каналов : Front: L C R, Side: L R, LFE
Частота : 48,0 КГц
Битовая глубина : 24 бит
Метод сжатия : С потерями
Задержка видео : 11 мс.
Размер потока : 1,09 Гбайт (10%)
Заголовок : DTS 5.1 @ 1536 kbps - Одноголосый, А. Михалев
Язык : Russian
Default : Нет
Forced : Нет
Аудио #6
Идентификатор : 7
Формат : DTS
Формат/Информация : Digital Theater Systems
Режим : 16
Параметр Endianness формата : Big
Идентификатор кодека : A_DTS
Продолжительность : 1 ч. 43 м.
Вид битрейта : Постоянный
Битрейт : 1509 Кбит/сек
Каналы : 6 каналов
Расположение каналов : Front: L C R, Side: L R, LFE
Частота : 48,0 КГц
Битовая глубина : 24 бит
Метод сжатия : С потерями
Задержка видео : 11 мс.
Размер потока : 1,09 Гбайт (10%)
Заголовок : DTS 5.1 @ 1536 kbps
Язык : English
Default : Нет
Forced : Нет
Текст #1
Идентификатор : 8
Формат : UTF-8
Идентификатор кодека : S_TEXT/UTF8
Идентификатор кодека/Информация : UTF-8 Plain Text
Заголовок : R5
Язык : Russian
Default : Нет
Forced : Нет
Текст #2
Идентификатор : 9
Формат : UTF-8
Идентификатор кодека : S_TEXT/UTF8
Идентификатор кодека/Информация : UTF-8 Plain Text
Язык : English
Default : Нет
Forced : Нет
Меню
00:00:00.000 : :00:00:00.000
00:12:39.133 : :00:12:39.133
00:21:33.167 : :00:21:33.167
00:33:14.326 : :00:33:14.326
00:40:51.866 : :00:40:51.866
00:49:55.075 : :00:49:55.075
01:03:31.641 : :01:03:31.641
01:09:34.629 : :01:09:34.629
01:17:22.388 : :01:17:22.388
01:30:15.827 : :01:30:15.827

Релиз от:


_________________
Проголосуй за трекер Открытый торрент трекер - RUS-MEDIA.ORG

Проголосуй Открытый торрент трекер - RUS-MEDIA.ORG


Вернуться к началу
 Профиль Отправить личное сообщение  
 
   Похожие торренты   Автор   Торрент   Размер 
В этой теме нет новых непрочитанных сообщений. Коктейль / Cocktail [драма, мелодрама, комедия, 1988] BDRip 1080p, Dvo+Sub

salma3

54 | 15

8.48 ГБ

В этой теме нет новых непрочитанных сообщений. Поездка в Америку / Coming to America [Драма, мелодрама, комедия, 1988] BDRip 720p, Dub

salma3

10 | 7

7.61 ГБ

В этой теме нет новых непрочитанных сообщений. Замужем за мафией / Married to the Mob [Комедия, мелодрама, криминал, 1988] BDRip 720p, Dvo

salma3

0 | 0

9.62 ГБ

В этой теме нет новых непрочитанных сообщений. Короткий фильм о любви / Krótki film o milosci [драма, мелодрама, 1988] BDRip 720p, Dub+Mvo+Sub

salma3

43 | 8

3.97 ГБ

В этой теме нет новых непрочитанных сообщений. Город Зеро [Комедия, драма, 1988] BDRip 720p

salma3

0 | 0

4.58 ГБ

В этой теме нет новых непрочитанных сообщений. Поездка в Америку / Coming To America [Комедия, мелодрама, драма, 1988] BDRip, Dvo

salma3

25 | 2

2.19 ГБ

В этой теме нет новых непрочитанных сообщений. Камилла Клодель / Camille Claudel [мелодрама, биография, история, 1988] BDRip 720p, Mvo

salma3

0 | 0

13.53 ГБ


Начать новую тему Ответить на тему  [ 1 сообщение ] 




Для Мосгорсуда, Роскомнадзора и рекламодателей:: mosgorsud-torrent[собачка]yandex.ru
cron