Торрент файл
скачать торрент магнет ссылка Добавлен: 07 июн 2017, 20:43
Размер: 3.38 ГБ
Сидеров: 176
Личеров: 84
Статус: (salma3)
Автор

СообщениеДобавлено: 07 июн 2017, 20:43 

Не в сети
Супермодератор
Аватара пользователя
Дата регистрации:
15 фев 2012, 16:44
Возраст: 29
Спасибо: 7428 / 2147
Сообщения: 80130
Год выхода: 1994
Жанр: приключения, семейный
Режиссер: Кен Олин

В ролях: Скотт Бэйрстоу, Чармэйн Крэйг, Аль Хэррингтон, Энтони Руйвивар, Виктория Расимо, Альфред Молина, Пол Койер, Джеффри Льюис, Мэттью Коулз, Вудроу В. Моррисон

Описание: На Диком Западе издавна существовала легенда о белом волке. Никто не мог разгадать этот миф. Но когда древнее индейское племя попало в беду, и золотоискатель Генри со своим псом по кличке Белый Клык встал на его защиту, таинственное предание воплощается в реальность…



Страна: США
Продолжительность: 01:46:10
Перевод #1: Профессиональный (Многоголосый, Закадровый) (iTunes Russia)
Перевод #2: Английский (Оригинал)
Перевод #3: Английский (Оригинал)

Файл
Формат: MKV
Качество: WEB-DL 720p
Видео: 1280x688 (1.85:1), 23.976 fps, 3861 kbps, 0.183 bit/pixel
Аудио #1: AAC, 2 ch, 106 kbps (Многоголосый iTunes Russia)
Аудио #2: AAC, 2 ch, 176 kbps (Английский Оригинал)
Аудио #3: AC-3, 6 ch, 384 kbps (Английский Оригинал)
Субтитры: Английские (SDH)
Навигация: Есть
Скачать: Семпл

General
Unique ID : 207729891651242649734169972214474554903 (0x9C475265E950F6ECAB5EFDCA57C93E17)
Complete name : White.Fang.2.Myth.of.the.White.Wolf.1994.WEB.DL.720p.P.mkv
Format : Matroska
Format version : Version 2
File size : 3.38 GiB
Duration : 1h 46mn
Overall bit rate : 4 557 Kbps
Encoded date : UTC 2017-06-07 10:04:05
Writing application : mkvmerge v5.6.0 ('Kenya Kane') built on May 27 2012 16:44:04
Writing library : libebml v1.2.3 + libmatroska v1.3.0
Attachements : Cover 1.jpg / Cover 2.jpg

Video
ID : 1
Format : AVC
Format/Info : Advanced Video Codec
Format profile : High@L3.1
Format settings, CABAC : No
Format settings, ReFrames : 2 frames
Format settings, GOP : N=1
Codec ID : V_MPEG4/ISO/AVC
Duration : 1h 46mn
Bit rate : 3 861 Kbps
Width : 1 280 pixels
Height : 688 pixels
Display aspect ratio : 1.85:1
Frame rate mode : Constant
Frame rate : 23.976 fps
Color space : YUV
Chroma subsampling : 4:2:0
Bit depth : 8 bits
Scan type : Progressive
Bits/(Pixel*Frame) : 0.183
Stream size : 2.86 GiB (98%)
Language : English
Default : Yes
Forced : No
Color primaries : BT.709
Transfer characteristics : BT.709
Matrix coefficients : BT.709
Color range : Limited

Audio #1
ID : 2
Format : AAC
Format/Info : Advanced Audio Codec
Format profile : HE-AAC / LC
Codec ID : A_AAC
Duration : 1h 46mn
Channel(s) : 2 channels
Channel positions : Front: L R
Sampling rate : 88.2 KHz / 44.1 KHz
Compression mode : Lossy
Title : Многоголосый 2.0 (iTunes Russia)
Language : Russian
Default : Yes
Forced : No

Audio #2
ID : 3
Format : AAC
Format/Info : Advanced Audio Codec
Format profile : HE-AAC / LC
Codec ID : A_AAC
Duration : 1h 46mn
Channel(s) : 2 channels
Channel positions : Front: L R
Sampling rate : 88.2 KHz / 44.1 KHz
Compression mode : Lossy
Title : Английский 2.0 (Оригинал)
Language : English
Default : No
Forced : No

Audio #3
ID : 4
Format : AC-3
Format/Info : Audio Coding 3
Mode extension : CM (complete main)
Format settings, Endianness : Big
Codec ID : A_AC3
Duration : 1h 46mn
Bit rate mode : Constant
Bit rate : 384 Kbps
Channel(s) : 6 channels
Channel positions : Front: L C R, Side: L R, LFE
Sampling rate : 48.0 KHz
Bit depth : 16 bits
Compression mode : Lossy
Stream size : 292 MiB (8%)
Title : Английский 5.1 (Оригинал)
Language : English
Default : No
Forced : No

Text
ID : 5
Format : UTF-8
Codec ID : S_TEXT/UTF8
Codec ID/Info : UTF-8 Plain Text
Title : Английские (SDH)
Language : English
Default : No
Forced : No

Menu
00:00:00.000 : en:Chapter 01
00:11:23.000 : en:Chapter 02
00:21:23.000 : en:Chapter 03
00:30:07.000 : en:Chapter 04
00:41:41.000 : en:Chapter 05
00:56:42.000 : en:Chapter 06
01:08:02.000 : en:Chapter 07
01:19:35.000 : en:Chapter 08
01:34:31.000 : en:Chapter 09
01:43:01.000 : en:Chapter 10


_________________
Проголосуй за трекер Открытый торрент трекер - RUS-MEDIA.ORG

Проголосуй Открытый торрент трекер - RUS-MEDIA.ORG


Вернуться к началу
 Профиль Отправить личное сообщение  
 
   Похожие торренты   Автор   Торрент   Размер 
В этой теме нет новых непрочитанных сообщений. Белый клык 2: Легенда о белом волке / White Fang 2: Myth of the White Wolf [Приключения, семейный, 1994] WEB-DLRip 720p, Mvo

salma3

0 | 0

4.59 ГБ

В этой теме нет новых непрочитанных сообщений. Белый клык 2: Легенда о белом волке / White Fang 2: Myth of the White Wolf [Приключения, семейный, 1994] WEB-DL 1080p, Mvo

salma3

10 | 9

9.67 ГБ

В этой теме нет новых непрочитанных сообщений. Белый клык 2: Легенда о белом волке / White Fang 2: Myth of the White Wolf [приключения, семейный, 1994] WEB-DLRip-AVC, Mvo [iTunes]

salma3

35 | 23

2.56 ГБ

В этой теме нет новых непрочитанных сообщений. Белый клык / White Fang [драма, приключения, 1991] WEB-DL 720p, Mvo iTunes]

salma3

61 | 21

3.43 ГБ

В этой теме нет новых непрочитанных сообщений. Белый клык / White Fang [Драма, Приключения, экранизация, 1991] WEB-DLRip 720p, Mvo

salma3

0 | 0

5.35 ГБ

В этой теме нет новых непрочитанных сообщений. Белый Клык / White Fang [драма, приключения, 1991] WEBRip, Mvo

salma3

20 | 3

1.45 ГБ

В этой теме нет новых непрочитанных сообщений. Белый клык / White Fang [Драма, Приключения, экранизация, 1991] WEB-DL 1080p, Mvo

salma3

0 | 1

11.37 ГБ


Начать новую тему Ответить на тему  [ 1 сообщение ] 




Для Мосгорсуда, Роскомнадзора и рекламодателей:: mosgorsud-torrent[собачка]yandex.ru
cron