Торрент файл
скачать торрент магнет ссылка Добавлен: 18 июн 2017, 11:05
Размер: 8.77 ГБ
Сидеров: 12
Личеров: 7
Статус: (salma3)
Автор

СообщениеДобавлено: 18 июн 2017, 11:05 

Не в сети
Супермодератор
Аватара пользователя
Дата регистрации:
15 фев 2012, 16:44
Возраст: 29
Спасибо: 7434 / 2147
Сообщения: 80293
Год выхода: 1974
Жанр: триллер, драма, детектив
Режиссер: Роман Полански

В ролях: Джек Николсон, Фэй Данауэй, Джон Хьюстон, Перри Лопес, Джон Хиллерман, Даррел Зверлинг, Дайан Лэдд, Рой Дженсон, Роман Полански, Ричард Бакалян

О фильме:
Гиттс принимает предложение загадочной богатой красавицы заняться расследованием обстоятельств тайного романа на стороне ее мужа — инженера. Согласившись на это дело, Гиттс не подозревал, что окажется в центре тайных скандалов, беспредела коррупции и скрытых махинаций, правда о которых всплывет однажды ночью вместе с телом несчастного инженера…



Страна: США
Продолжительность: 02:10:26
Перевод: Профессиональный (многоголосый закадровый)

Файл
Кодек: x264
Качество: HDTVRip
Видео: 1920x816 (2,35:1), 23.976 fps, ~8850 kbps
Звук #1: AC3, 2 ch, ~384 Kbps (Русский)
Звук #2: AC3, 2 ch, ~384 Kbps (Английский)
Субтитры: Русские

Общее
Уникальный идентификатор : 199184682243688525479803478920222510403 (0x95D9930BDACA73079E2A1FE1529C8D43)
Полное имя : E:китайскийChinatown.(1974).[1080p].HDTVRip.mkv
Формат : Matroska
Размер файла : 8,77 Гбайт
Продолжительность : 2 ч. 10 м.
Общий поток : 9620 Кбит/сек
Название фильма : Chinatown
Дата кодирования : UTC 2011-06-28 16:21:21
Программа кодирования : mkvmerge v3.3.0 ('Language') built on Mar 24 2010 14:59:24
Библиотека кодирования : libebml v0.8.0 + libmatroska v0.9.0

Видео
Идентификатор : 1
Формат : AVC
Формат/Информация : Advanced Video Codec
Профиль формата : High@L4.1
Параметр CABAC формата : Да
Параметр ReFrames формата : 4 кадры
Идентификатор кодека : V_MPEG4/ISO/AVC
Продолжительность : 2 ч. 10 м.
Битрейт : 8850 Кбит/сек
Ширина : 1920 пикс.
Высота : 816 пикс.
Соотношение сторон : 2,35:1
Частота кадров : 23,976 кадр/сек
Цветовое пространство : YUV
Подвыборка цветности : 4:2:0
Битовая глубина : 8 бит
Тип развёртки : Прогрессивная
Бит/(Пиксели*Кадры) : 0.236
Размер потока : 7,89 Гбайт (90%)
Библиотека кодирования : x264 core 67 r1148M 400740b
Настройки программы : cabac=1 / ref=4 / deblock=1:-2:-2 / analyse=0x3:0x113 / me=umh / subme=9 / psy_rd=0.8:0.2 / mixed_ref=1 / me_range=32 / chroma_me=1 / trellis=2 / 8x8dct=1 / cqm=0 / deadzone=21,11 / chroma_qp_offset=-3 / threads=6 / nr=0 / decimate=0 / mbaff=0 / bframes=5 / b_pyramid=1 / b_adapt=2 / b_bias=0 / direct=3 / wpredb=1 / keyint=250 / keyint_min=25 / scenecut=40 / rc=2pass / bitrate=8850 / ratetol=1.0 / qcomp=0.60 / qpmin=10 / qpmax=51 / qpstep=4 / cplxblur=20.0 / qblur=0.5 / vbv_maxrate=50000 / vbv_bufsize=50000 / ip_ratio=1.40 / pb_ratio=1.30 / aq=1:1.00
Язык : English

Аудио #1
Идентификатор : 2
Формат : AC-3
Формат/Информация : Audio Coding 3
Расширение режима : CM (complete main)
Идентификатор кодека : A_AC3
Продолжительность : 2 ч. 10 м.
Вид битрейта : Постоянный
Битрейт : 384 Кбит/сек
Канал(ы) : 2 канала(ов)
Расположение каналов : Front: L R
Частота : 48,0 КГц
Битовая глубина : 16 бит
Метод сжатия : С потерями
Размер потока : 358 Мбайт (4%)
Заголовок : MVO
Язык : Russian

Аудио #2
Идентификатор : 3
Формат : AC-3
Формат/Информация : Audio Coding 3
Расширение режима : CM (complete main)
Идентификатор кодека : A_AC3
Продолжительность : 2 ч. 10 м.
Вид битрейта : Постоянный
Битрейт : 384 Кбит/сек
Канал(ы) : 6 канала(ов)
Расположение каналов : Front: L C R, Side: L R, LFE
Частота : 48,0 КГц
Битовая глубина : 16 бит
Метод сжатия : С потерями
Размер потока : 358 Мбайт (4%)
Язык : English

Текст
Идентификатор : 4
Формат : UTF-8
Идентификатор кодека : S_TEXT/UTF8
Идентификатор кодека/Информация : UTF-8 Plain Text
Язык : Russian

Меню
00:00:00.000 : :Chapter 01
00:05:46.334 : :Chapter 02
00:16:20.302 : :Chapter 03
00:27:38.736 : :Chapter 04
00:36:07.970 : :Chapter 05
00:45:09.037 : :Chapter 06
00:59:54.271 : :Chapter 07
01:06:24.905 : :Chapter 08
01:14:43.839 : :Chapter 09
01:20:17.707 : :Chapter 10
01:29:05.874 : :Chapter 11
01:35:25.541 : :Chapter 12
01:47:07.308 : :Chapter 13
01:54:08.075 : :Chapter 14
01:59:45.142 : :Chapter 15
02:03:36.743 : :Chapter 16


_________________
Проголосуй за трекер Открытый торрент трекер - RUS-MEDIA.ORG

Проголосуй Открытый торрент трекер - RUS-MEDIA.ORG


Вернуться к началу
 Профиль Отправить личное сообщение  
 
   Похожие торренты   Автор   Торрент   Размер 
В этой теме нет новых непрочитанных сообщений. Китайский квартал / Chinatown [триллер, драма, детектив, 1974] BDRip-AVC, Mvo

salma3

12 | 5

2.44 ГБ

В этой теме нет новых непрочитанных сообщений. Китайский квартал / Chinatown [триллер, драма, детектив, 1974 НDRip, Mvo

salma3

13 | 2

1.46 ГБ

В этой теме нет новых непрочитанных сообщений. Китайский синдром / The China Syndrome [триллер, драма, 1979] BDRemux 1080p, Dub+Mvo+Avo+Sub

salma3

0 | 19

31.59 ГБ

В этой теме нет новых непрочитанных сообщений. Китайский новый год [мелодрама, 2017] HDTVRip

salma3

2237 | 386

1.37 ГБ

В этой теме нет новых непрочитанных сообщений. Китайский новый год (Мелодрама, 2017) HDTVRip-AVC от Files-x

marya111

512 | 70

1.46 ГБ

В этой теме нет новых непрочитанных сообщений. Развратная графиня / La comtesse perverse [драма, триллер, 1974] BDRemux 1080p, Avo [Full version]

salma3

21 | 42

20.04 ГБ

В этой теме нет новых непрочитанных сообщений. Китайский продавец / China Salesman [боевик, приключения, 2017] HDTVRip, Mvo

salma3

288 | 47

1.37 ГБ


Начать новую тему Ответить на тему  [ 1 сообщение ] 




Для Мосгорсуда, Роскомнадзора и рекламодателей:: mosgorsud-torrent[собачка]yandex.ru
cron