Торрент файл
скачать торрент магнет ссылка Добавлен: 29 июн 2017, 09:34
Размер: 5.96 ГБ
Сидеров: 1137
Личеров: 560
Статус: (salma3)
Автор

СообщениеДобавлено: 29 июн 2017, 09:34 

Не в сети
Супермодератор
Аватара пользователя
Дата регистрации:
15 фев 2012, 16:44
Возраст: 29
Спасибо: 7400 / 2147
Сообщения: 78259
Год выхода: 2016
Жанр: комедия
Режиссер: Фред Кавайе

В ролях: Дэни Бун, Лоранс Арне, Ноэми Шмидт, Патрик Ридремонт, Кристоф Канар, Кристоф Фавр, Ивонн Граделе, Карина Маримон, Изабель Зьенталь, Одри Родс-Грег

О фильме: Франсуа Готье — виртуозный скрипач. Но за талант, как водится, надо платить. У музыканта серьезный недостаток: он невероятно скуп. Мания экономить превращает его в одержимого, а любой платеж ввергает в панический ужас. Но однажды его жизнь резко меняется.



Выпущено: Франция
Продолжительность: 01:30:42
Озвучивание: Дублированный [iTunes]

Файл
Качество: BDRip 1080p
Видео: MPEG-4 AVC, 1920x804, 7569 Kbit/s, 23.976 fps
Аудио #01: 48 kHz, AC3, 5.1, 384 Kbps | Дублированный | iTunes | RUS
Аудио #02: 48 kHz, DTS, 5.1, 1510 Kbps | Оригинал | FRE

General
Unique ID : 235050562120359047286935818088781866184 (0xB0D517734FC4148AAFAE4B4EDC5264C8)
Complete name : F:VideoRadin!.BDRip.1080.ExKinoRay.mkv
Format : Matroska
Format version : Version 4 / Version 2
File size : 5.96 GiB
Duration : 1 h 30 min
Overall bit rate : 9 460 kb/s
Encoded date : UTC 2017-06-28 20:43:15
Writing application : mkvmerge v13.0.0 ('The Juggler') 64bit
Writing library : libebml v1.3.4 + libmatroska v1.4.5

Video
ID : 1
Format : AVC
Format/Info : Advanced Video Codec
Format profile : High@L4.1
Format settings, CABAC : Yes
Format settings, ReFrames : 5 frames
Codec ID : V_MPEG4/ISO/AVC
Duration : 1 h 30 min
Bit rate : 7 569 kb/s
Width : 1 920 pixels
Height : 804 pixels
Display aspect ratio : 2.40:1
Frame rate mode : Constant
Frame rate : 24.000 FPS
Color space : YUV
Chroma subsampling : 4:2:0
Bit depth : 8 bits
Scan type : Progressive
Bits/(Pixel*Frame) : 0.204
Stream size : 4.77 GiB (80%)
Writing library : x264 core 148 r2705 3f5ed56
Encoding settings : cabac=1 / ref=5 / deblock=1:-2:-2 / analyse=0x3:0x133 / me=umh / subme=10 / psy=1 / psy_rd=1.05:0.05 / mixed_ref=1 / me_range=32 / chroma_me=1 / trellis=2 / 8x8dct=1 / cqm=0 / deadzone=21,11 / fast_pskip=0 / chroma_qp_offset=-3 / threads=12 / lookahead_threads=2 / sliced_threads=0 / nr=0 / decimate=0 / interlaced=0 / bluray_compat=0 / constrained_intra=0 / bframes=10 / b_pyramid=2 / b_adapt=2 / b_bias=0 / direct=3 / weightb=1 / open_gop=0 / weightp=2 / keyint=240 / keyint_min=24 / scenecut=40 / intra_refresh=0 / rc_lookahead=50 / rc=2pass / mbtree=0 / bitrate=7569 / ratetol=1.0 / qcomp=0.60 / qpmin=0 / qpmax=69 / qpstep=4 / cplxblur=20.0 / qblur=0.5 / vbv_maxrate=50000 / vbv_bufsize=62500 / nal_hrd=none / filler=0 / ip_ratio=1.40 / pb_ratio=1.30 / aq=3:0.80
Language : French
Default : Yes
Forced : No

Audio #1
ID : 2
Format : AC-3
Format/Info : Audio Coding 3
Format settings, Endianness : Big
Codec ID : A_AC3
Duration : 1 h 30 min
Bit rate mode : Constant
Bit rate : 384 kb/s
Channel(s) : 6 channels
Channel positions : Front: L C R, Side: L R, LFE
Sampling rate : 48.0 kHz
Frame rate : 31.250 FPS (1536 spf)
Bit depth : 16 bits
Compression mode : Lossy
Stream size : 248 MiB (4%)
Title : iTunes
Language : Russian
Service kind : Complete Main
Default : Yes
Forced : No

Audio #2
ID : 3
Format : DTS
Format/Info : Digital Theater Systems
Mode : 16
Format settings, Endianness : Big
Codec ID : A_DTS
Duration : 1 h 30 min
Bit rate mode : Constant
Bit rate : 1 509 kb/s
Channel(s) : 6 channels
Channel positions : Front: L C R, Side: L R, LFE
Sampling rate : 48.0 kHz
Frame rate : 93.750 FPS (512 spf)
Bit depth : 24 bits
Compression mode : Lossy
Stream size : 973 MiB (16%)
Title : Original
Language : French
Default : No
Forced : No

Menu
00:00:00.000 : en:00:00:00.000
00:12:27.250 : en:00:12:27.250
00:23:19.083 : en:00:23:19.083
00:36:24.833 : en:00:36:24.833
00:47:07.917 : en:00:47:07.917
01:06:21.583 : en:01:06:21.583
01:14:41.833 : en:01:14:41.833
01:22:59.042 : en:01:22:59.042


Релиз от: Автор релиза:


_________________
Проголосуй за трекер Открытый торрент трекер - RUS-MEDIA.ORG

Проголосуй Открытый торрент трекер - RUS-MEDIA.ORG


Вернуться к началу
 Профиль Отправить личное сообщение  
 
   Похожие торренты   Автор   Торрент   Размер 
В этой теме нет новых непрочитанных сообщений. Жмот / Radin ! [комедия, 2016] BDRip, Dub [iTunes]

salma3

5025 | 789

1.42 ГБ

В этой теме нет новых непрочитанных сообщений. Жмот / Radin ! [комедия, 2016] BDRip 720p, Dub [iTunes]

salma3

1037 | 477

3.31 ГБ

В этой теме нет новых непрочитанных сообщений. Без тормозов / À fond [комедия, 2016] BDRip 1080p, Dub [iTunes]

salma3

2723 | 1803

6.8 ГБ

В этой теме нет новых непрочитанных сообщений. Имущество с хвостом / Who Gets the Dog? [комедия, 2016] BDRip 1080p, Dub [iTunes]

salma3

313 | 55

6.38 ГБ

В этой теме нет новых непрочитанных сообщений. К черту на рога / Quo vado? [комедия, 2016] BDRip 1080p, Dub [iTunes]

marya111

425 | 73

7.09 ГБ

В этой теме нет новых непрочитанных сообщений. Несносные леди / Mother's Day [драма, комедия, 2016] BDRip 1080p, Dub [iTunes]

marya111

0 | 0

12.99 ГБ

В этой теме нет новых непрочитанных сообщений. Мальчишник в Паттайе / Pattaya [Комедия, приключения, 2016] BDRip 1080p, Dub [iTunes]

salma3

363 | 59

10.26 ГБ


Начать новую тему Ответить на тему  [ 1 сообщение ] 




Для Мосгорсуда, Роскомнадзора и рекламодателей:: mosgorsud-torrent[собачка]yandex.ru
cron