Торрент файл
скачать торрент магнет ссылка Добавлен: 24 июл 2017, 00:09
Размер: 10.77 ГБ
Сидеров: 40
Личеров: 17
Статус: (salma3)
Автор

СообщениеДобавлено: 24 июл 2017, 00:09 

Не в сети
Супермодератор
Аватара пользователя
Дата регистрации:
15 фев 2012, 16:44
Возраст: 29
Спасибо: 7428 / 2147
Сообщения: 80047
Год выпуска: 1990
Страна: США
Жанр: ужасы, фантастика, боевик
Перевод: Профессиональный (двухголосый, закадровый) CP Digital + Профессиональный (двухголосый, закадровый) + Авторский (одноголосый, закадровый) П.Санаев + Авторский (одноголосый, закадровый) П.Прямостанов
Субтитры: русские (full), английские (full)
Продолжительность: 01:35:54

Режиссер: Марк Л. Лестер

В ролях: Брэдли Грегг (Cody Culp), Трейси Линд (Christie Langford), Малкольм МакДауэлл (Dr. Miles Langford), Стейси Кич (Dr. Bob Forrest), Пэтрик Килпэтрик (Mr. Bryles), Пэм Гриер (Ms. Connors), Джон П. Райан (Mr. Hardin), Даррен Э. Берроуз (Sonny), Джошуа Джон Миллер (Angel), Шэрон Уайатт (Janice Culp), Джеймс Медина (Hector), Джейсон Оливер (Curt)

Описание:
Время действия - 1999 год. В школах и вузах США - полный беспредел, творимый молодежными бандами. Департамент Обороны Образования, отчаявшись навести дисциплину в Высшей школе Кеннеди решает воспользоваться услугами фирмы «Мегатек», работавшей на оборону и продолжающей вести разработку различных моделей роботов, в том числе учителей-киборгов.



Качество: BDRip 1080p
Формат: MKV
Видео: AVC, 1920x1078 (16:9), 14867 kbps, 23,976 fps, 0,300 bpp
Аудио №1: русский / AC3 / 2.0 / 48 kHz / 192 kbps / Двухголосый закадровый, CP Digital
Аудио №2: русский / AC3 / 2.0 / 48 kHz / 192 kbps / Двухголосый закадровый
Аудио №3: русский / AC3 / 2.0 / 48 kHz / 192 kbps / Авторский, П.Санаев
Аудио №4: русский / AC3 / 2.0 / 48 kHz / 192 kbps / Авторский, П.Прямостанов
Аудио №5: английский / AC3 / 5.1 / 48 kHz / 448 kbps / Original
Навигация по главам: есть

Релиз от:


x264 [info]: frame I:757 Avg QP:16.17 size:200412
x264 [info]: frame P:31270 Avg QP:18.12 size:113080
x264 [info]: frame B:105949 Avg QP:20.44 size: 66088
General
Unique ID : 170597590280822142295653828333768900964 (0x8057E697F590E674BF9350A1615D8164)
Complete name : D:downloadClass of 1999.1990.BDRip 1080р by schultz R.G.Resident.mkv
Format : Matroska
Format version : Version 4 / Version 2
File size : 10.8 GiB
Duration : 1 h 35 min
Overall bit rate : 16.1 Mb/s
Encoded date : UTC 2017-07-23 02:38:15
Writing application : mkvmerge v8.9.0 ('Father Daughter') 64bit
Writing library : libebml v1.3.3 + libmatroska v1.4.4
Video
ID : 1
Format : AVC
Format/Info : Advanced Video Codec
Format profile : High@L4.1
Format settings, CABAC : Yes
Format settings, ReFrames : 4 frames
Codec ID : V_MPEG4/ISO/AVC
Duration : 1 h 35 min
Bit rate : 14.9 Mb/s
Width : 1 920 pixels
Height : 1 078 pixels
Display aspect ratio : 16:9
Frame rate mode : Constant
Frame rate : 23.976 (23976/1000) FPS
Color space : YUV
Chroma subsampling : 4:2:0
Bit depth : 8 bits
Scan type : Progressive
Bits/(Pixel*Frame) : 0.300
Stream size : 9.96 GiB (92%)
Writing library : x264 core 146 r2538 121396c
Encoding settings : cabac=1 / ref=4 / deblock=1:-3:-3 / analyse=0x3:0x113 / me=umh / subme=11 / psy=1 / psy_rd=1.00:0.15 / mixed_ref=1 / me_range=48 / chroma_me=1 / trellis=2 / 8x8dct=1 / cqm=0 / deadzone=21,11 / fast_pskip=0 / chroma_qp_offset=-3 / threads=12 / lookahead_threads=3 / sliced_threads=0 / nr=0 / decimate=0 / interlaced=0 / bluray_compat=0 / constrained_intra=0 / bframes=10 / b_pyramid=2 / b_adapt=2 / b_bias=0 / direct=3 / weightb=1 / open_gop=0 / weightp=2 / keyint=240 / keyint_min=23 / scenecut=40 / intra_refresh=0 / rc_lookahead=40 / rc=2pass / mbtree=0 / bitrate=14867 / ratetol=1.0 / qcomp=0.60 / qpmin=0 / qpmax=69 / qpstep=4 / cplxblur=20.0 / qblur=0.5 / vbv_maxrate=50000 / vbv_bufsize=62500 / nal_hrd=none / filler=0 / ip_ratio=1.40 / pb_ratio=1.30 / aq=1:1.00
Language : English
Default : Yes
Forced : No
Color range : Limited
Color primaries : BT.709
Transfer characteristics : BT.709
Matrix coefficients : BT.709
Audio #1
ID : 2
Format : AC-3
Format/Info : Audio Coding 3
Mode extension : CM (complete main)
Format settings, Endianness : Big
Codec ID : A_AC3
Duration : 1 h 35 min
Bit rate mode : Constant
Bit rate : 192 kb/s
Channel(s) : 2 channels
Channel positions : Front: L R
Sampling rate : 48.0 kHz
Frame rate : 31.250 FPS (1536 spf)
Compression mode : Lossy
Stream size : 132 MiB (1%)
Title : Двухголосый, CP Digital
Language : Russian
Default : Yes
Forced : No
Audio #2
ID : 3
Format : AC-3
Format/Info : Audio Coding 3
Mode extension : CM (complete main)
Format settings, Endianness : Big
Codec ID : A_AC3
Duration : 1 h 35 min
Bit rate mode : Constant
Bit rate : 192 kb/s
Channel(s) : 2 channels
Channel positions : Front: L R
Sampling rate : 48.0 kHz
Frame rate : 31.250 FPS (1536 spf)
Compression mode : Lossy
Stream size : 132 MiB (1%)
Title : Двухголосый
Language : Russian
Default : No
Forced : No
Audio #3
ID : 4
Format : AC-3
Format/Info : Audio Coding 3
Mode extension : CM (complete main)
Format settings, Endianness : Big
Codec ID : A_AC3
Duration : 1 h 35 min
Bit rate mode : Constant
Bit rate : 192 kb/s
Channel(s) : 2 channels
Channel positions : Front: L R
Sampling rate : 48.0 kHz
Frame rate : 31.250 FPS (1536 spf)
Compression mode : Lossy
Stream size : 132 MiB (1%)
Title : Санаев
Language : Russian
Default : No
Forced : No
Audio #4
ID : 5
Format : AC-3
Format/Info : Audio Coding 3
Mode extension : CM (complete main)
Format settings, Endianness : Big
Codec ID : A_AC3
Duration : 1 h 35 min
Bit rate mode : Constant
Bit rate : 192 kb/s
Channel(s) : 2 channels
Channel positions : Front: L R
Sampling rate : 48.0 kHz
Frame rate : 31.250 FPS (1536 spf)
Compression mode : Lossy
Stream size : 132 MiB (1%)
Title : Прямостанов
Language : Russian
Default : No
Forced : No
Audio #5
ID : 6
Format : AC-3
Format/Info : Audio Coding 3
Mode extension : CM (complete main)
Format settings, Endianness : Big
Codec ID : A_AC3
Duration : 1 h 35 min
Bit rate mode : Constant
Bit rate : 448 kb/s
Channel(s) : 6 channels
Channel positions : Front: L C R, Side: L R, LFE
Sampling rate : 48.0 kHz
Frame rate : 31.250 FPS (1536 spf)
Compression mode : Lossy
Stream size : 307 MiB (3%)
Title : Original
Language : English
Default : No
Forced : No
Text #1
ID : 7
Format : UTF-8
Codec ID : S_TEXT/UTF8
Codec ID/Info : UTF-8 Plain Text
Duration : 1 h 29 min
Bit rate : 75 b/s
Count of elements : 559
Stream size : 49.3 KiB (0%)
Title : full
Language : Russian
Default : No
Forced : No
Text #2
ID : 8
Format : UTF-8
Codec ID : S_TEXT/UTF8
Codec ID/Info : UTF-8 Plain Text
Duration : 1 h 34 min
Bit rate : 46 b/s
Count of elements : 1088
Stream size : 32.2 KiB (0%)
Title : full
Language : English
Default : No
Forced : No
Menu
00:00:00.000 : :Chapter 1
00:06:29.654 : :Chapter 2
00:13:17.188 : :Chapter 3
00:22:24.355 : :Chapter 4
00:30:35.755 : :Chapter 5
00:37:28.888 : :Chapter 6
00:44:17.655 : :Chapter 7
00:51:06.322 : :Chapter 8
01:02:27.256 : :Chapter 9
01:08:57.323 : :Chapter 10
01:22:09.823 : :Chapter 11
01:30:56.090 : :Chapter 12


_________________
Проголосуй за трекер Открытый торрент трекер - RUS-MEDIA.ORG

Проголосуй Открытый торрент трекер - RUS-MEDIA.ORG


Вернуться к началу
 Профиль Отправить личное сообщение  
 
   Похожие торренты   Автор   Торрент   Размер 
В этой теме нет новых непрочитанных сообщений. Класс 1999 / Class of 1999 [ужасы, фантастика, боевик, 1990] BDRip 1080p, Dvo

salma3

0 | 0

13.61 ГБ

В этой теме нет новых непрочитанных сообщений. Класс 1999 / Class of 1999 [ужасы, фантастика, боевик, 1990] BDRip 720p, Dvo

salma3

9 | 6

5.39 ГБ

В этой теме нет новых непрочитанных сообщений. Класс 1999 / Class of 1999 [ужасы, фантастика, боевик, 1990] BDRip 720p, Dvo

salma3

34 | 11

6.22 ГБ

В этой теме нет новых непрочитанных сообщений. Класс 1999 / Class of 1999 [ужасы, фантастика, боевик, 1990] DVDRip-AVC, Dvo

salma3

128 | 38

2.66 ГБ

В этой теме нет новых непрочитанных сообщений. Класс 1999 / Class of 1999 [ужасы, фантастика, боевик, 1990] HDRip, Dvo

salma3

94 | 15

1.37 ГБ

В этой теме нет новых непрочитанных сообщений. Класс 1999 / Class of 1999 [Фантастика, боевик, ужасы, 1990] BDRemux 1080р, Dvo

salma3

4 | 22

23.8 ГБ

В этой теме нет новых непрочитанных сообщений. Класс 1999 / Class of 1999 [ужасы, фантастика, боевик, 1990] BDRemux 1080р, Dvo

salma3

11 | 3

22.35 ГБ


Начать новую тему Ответить на тему  [ 1 сообщение ] 




Для Мосгорсуда, Роскомнадзора и рекламодателей:: mosgorsud-torrent[собачка]yandex.ru
cron